Action

Anaconda 4 Trail of Blood AC3 5,1 DVDRip[Eng]2009

  • Download 5x Faster
  • Download torrent
  • Direct Download
  • Rate this torrent +  |  -
Anaconda 4 Trail of Blood AC3 5,1 DVDRip[Eng]2009

Free and Direct Download with Usenet 300GB+ free


Torrent info

Name:Anaconda 4 Trail of Blood AC3 5,1 DVDRip[Eng]2009

Total Size: 1.39 GB

Magnet: Magnet Link

Seeds: 0

Leechers: 0

Stream: Watch Online @ Movie4u

Last Updated: 2015-06-03 14:20:13 (Update Now)

Torrent added: 2009-08-21 21:42:39




Torrent Files List


Torrent downloaded from Demonoid.com.txt (Size: 1.39 GB) (Files: 3)

 Torrent downloaded from Demonoid.com.txt

0.05 KB

 Anaconda 4 -Trail of Blood-AC3-5,1-DVDRip[Eng]2009.txt

2.84 KB

 Anaconda 4 -Trail of Blood-AC3-5,1-DVDRip[Eng]2009.avi

1.39 GB
 

Announce URL:

Torrent description

http://www.imdb.com/title/tt1150934/

DVD Release date`s:

UK 11 May 2009 (DVD premiere)
Netherlands 12 May 2009 (DVD premiere)
Brazil 20 May 2009 (DVD premiere)
Germany 18 June 2009 (DVD premiere)

User Rating:3.4/10 - 239 votes

Action,Horror.

Director:Don E. FauntLeRoy

Cast:Crystal Allen/John Rhys-Davies/Calin Stanciu/Linden Ashby, and others.

Plot:
A genetically created Anaconda, cut in half, regenerates itself into two aggressive giant snakes, due to the Blood Orchid.
Determined to atone for playing God, Anaconda 3 survivor Amanda heads to the Carpathian Mountains to destroy the research
of a fellow scientist who is attempting to beat the aging process using serum secreted from Blood Orchids and several
anacondas. Of course, the snakes get loose ....

Info:

General
Complete name : Anaconda 4 -Trail of Blood-AC3-5,1-DVDRip[Eng]2009.avi
Format : AVI
Format/Info : Audio Video Interleave
File size : 1.39 GiB
Duration : 1h 28mn
Overall bit rate : 2 243 Kbps
Writing application : VirtualDubMod 1.5.4.1 (build 2178/release)
Writing library : VirtualDubMod build 2178/release

Video
Format : MPEG-4 Visual
Format profile : [email protected]
Format settings, BVOP : No
Format settings, QPel : No
Format settings, GMC : No warppoints
Format settings, Matrix : Default
Codec ID : XVID
Codec ID/Hint : XviD
Duration : 1h 28mn
Bit rate : 1 788 Kbps
Width : 720 pixels
Height : 400 pixels
Display aspect ratio : 16/9
Frame rate : 23.976 fps
Resolution : 24 bits
Colorimetry : 4:2:0
Scan type : Progressive
Bits/(Pixel*Frame) : 0.259
Stream size : 1.11 GiB (80%)
Writing library : XviD 50

Audio
Format : AC-3
Format/Info : Audio Coding 3
Codec ID : 2000
Duration : 1h 28mn
Bit rate mode : Constant
Bit rate : 448 Kbps
Channel(s) : 6 channels
Channel positions : Front: L C R, Surround: L R, LFE
Sampling rate : 48.0 KHz
Stream size : 284 MiB (20%)
Alignment : Split accross interleaves
Interleave, duration : 83 ms (2.00 video frames)
Interleave, preload duration : 500 ms
Language : English

Enjoy...

related torrents

Torrent name

health leech seeds Size
 

comments (0)

Main Menu