Action

American Werewolf in Paris[1997] DVDRip AC3 2 0 Maka6358 avi

  • Download 5x Faster
  • Download torrent
  • Direct Download
  • Rate this torrent +  |  -
American Werewolf in Paris[1997] DVDRip AC3 2 0 Maka6358 avi

Anonymous and Direct Download 300GB+ free


Torrent info

Name:American Werewolf in Paris[1997] DVDRip AC3 2 0 Maka6358 avi

Total Size: 1.37 GB

Magnet: Magnet Link

Seeds: 0

Leechers: 0

Stream: Watch Online @ Movie4u

Last Updated: 2010-12-24 19:18:52 (Update Now)

Torrent added: 2009-08-21 21:40:29




Torrent Files List


AWIP.txt (Size: 1.37 GB) (Files: 3)

 AWIP.txt

0.52 KB

 An_American_Werewolf_In_Paris.jpg

33.82 KB

 American Werewolf in Paris[1997]-DVDRip-AC3 2.0-Maka6358.avi

1.37 GB
 

Announce URL:

Torrent description

The daughter of the werewolf from AWIL is alive and living in Paris where her mother (from the first film) and stepfather are trying to overcome her lycanthropic disease. A trio of American tourists on a thrill seeking trip around Europe manage to stop her from plunging to her death from the top of the Eiffel tower and are embroiled in a horrific but often hilarious plot involving a secret society of werewolves based in the city and a drug which allows werewolves to change at any time... This time there's no need for a full moon...

General
Complete name : American Werewolf in Paris[1997]-DVDRip-AC3 2.0-Maka6358.avi
Format : AVI
Format/Info : Audio Video Interleave
File size : 1.37 GiB
Duration : 1h 45mn
Overall bit rate : 1 856 Kbps

Video
Format : MPEG-4 Visual
Format profile : Streaming [email protected]
Format settings, BVOP : Yes
Format settings, QPel : No
Format settings, GMC : No warppoints
Format settings, Matrix : Custom
Codec ID : XVID
Codec ID/Hint : XviD
Duration : 1h 45mn
Bit rate : 1 657 Kbps
Width : 528 pixels
Height : 400 pixels
Display aspect ratio : 4/3
Frame rate : 25.000 fps
Resolution : 24 bits
Colorimetry : 4:2:0
Scan type : Progressive
Bits/(Pixel*Frame) : 0.314
Stream size : 1.22 GiB (89%)
Writing library : XviD 1.2.0.dev47 (UTC 2006-11-01)

Audio
Format : AC-3
Format/Info : Audio Coding 3
Codec ID : 2000
Duration : 1h 45mn
Bit rate mode : Constant
Bit rate : 192 Kbps
Channel(s) : 2 channels
Channel positions : L R
Sampling rate : 48.0 KHz
Stream size : 145 MiB (10%)
Alignment : Aligned on interleaves
Interleave, duration : 96 ms (2.40 video frames)
Interleave, preload duration : 96 ms
Language : English

Info Hash : 9D95BAB1DCA554C24C8E8C9AE563E579AD965C51

related torrents

Torrent name

health leech seeds Size
 


comments (0)

Main Menu