Comedy

50 First Dates 2004 BRRip XviD AC3 [ceasers palace info]

  • Download 5x Faster
  • Download torrent
  • Direct Download
  • Rate this torrent +  |  -

Torrent info

Name:50 First Dates 2004 BRRip XviD AC3 [ceasers palace info]

Total Size: 1.88 GB

Magnet: Magnet Link

Seeds: 0

Leechers: 0

Stream: Watch Full Movie @ Movie4u

Last Updated: 2010-12-19 06:10:49 (Update Now)

Torrent added: 2009-08-21 21:32:20



VPN For Torrents

Torrent Files List


50.First.Dates.2004.BRRip.XviD.AC3.nfo (Size: 1.88 GB) (Files: 2)

 50.First.Dates.2004.BRRip.XviD.AC3.nfo

2.00 KB

 50.First.Dates.2004.BRRip.XviD.AC3.avi

1.88 GB
 

Announce URL: http://ceasers-palace.info/announce.php?passkey=18436d8108a35142dc150cae9a067c96

Torrent description

Format : AVI
Format/Info : Audio Video Interleave
File size : 1.88 GiB
Duration : 1h 35mn
Overall bit rate : 2 837 Kbps
Writing application : VirtualDubMod 1.5.10.2 (build 2542/release)
Writing library : VirtualDubMod build 2542/release

Video
ID : 0
Format : MPEG-4 Visual
Format profile : Streaming [email protected]
Format settings, BVOP : Yes
Format settings, QPel : No
Format settings, GMC : No warppoints
Format settings, Matrix : Custom
Codec ID : XVID
Codec ID/Hint : XviD
Duration : 1h 35mn
Bit rate : 2 379 Kbps
Width : 720 pixels
Height : 304 pixels
Display aspect ratio : 2.35
Frame rate : 25.000 fps
Resolution : 24 bits
Colorimetry : 4:2:0
Scan type : Progressive
Bits/(Pixel*Frame) : 0.435
Stream size : 1.58 GiB (84%)
Writing library : XviD 1.2.1 (UTC 2008-12-04)

Audio
ID : 1
Format : AC-3
Format/Info : Audio Coding 3
Codec ID : 2000
Duration : 1h 35mn
Bit rate mode : Constant
Bit rate : 448 Kbps
Channel(s) : 6 channels
Channel positions : Front: L C R, Surround: L R, LFE
Sampling rate : 48.0 KHz
Stream size : 304 MiB (16%)
Alignment : Split accross interleaves
Interleave, duration : 40 ms (1.00 video frame)
Interleave, preload duration : 500 ms

related torrents

Torrent name

health leech seeds Size
 


comments (0)

Main Menu

 

script data-cfasync="false" src="//d2ghscazvn398x.cloudfront.net/?cshgd=690275">