Adventure

Der Seewolf Deutsch 2008 DVDrip Xvid [mnvv2 info]

  • Download 5x Faster
  • Download torrent
  • Direct Download
  • Rate this torrent +  |  -
Der Seewolf Deutsch 2008 DVDrip Xvid [mnvv2 info]

Free and Direct Download with Usenet.nl 300GB+ free


Torrent info

Name:Der Seewolf Deutsch 2008 DVDrip Xvid [mnvv2 info]

Total Size: 1.37 GB

Magnet: Magnet Link

Seeds: 0

Leechers: 0

Stream: Watch Online @ Movie4u

Last Updated: 2011-01-04 12:11:14 (Update Now)

Torrent added: 2009-08-21 21:08:44





Torrent Files List


info.txt (Size: 1.37 GB) (Files: 4)

 info.txt

2.63 KB

 CD1.avi

700.13 MB

 CD2.avi

699.88 MB

 Bild.JPG

4.30 KB
 

Announce URL: http://announce.mnvv2.info/announce.php

Torrent description

Der.Seewolf.Deutsch.2008.DVDrip.Xvid
Der Seewolf (2008)


Genre: Abenteuer
Jahr: 2008
Regie: Christoph Schrewe
Schauspieler: Thomas Kretschmann, Florian Stetter, Petra Schmidt-Schaller
FSK: Freigegeben ab 16 Jahren
Land: Deutschland
Filmlänge: 2 Std., 59 Min
DVD Start: 28.11.2008

1906 in San Francisco: Der Literaturkritiker Humphrey van Weyden besteigt die Fähre nach Sacramento. Als ein Unwetter aufzieht, kollidiert die Fähre im dichten Nebel mit einem Frachter und sinkt sofort. Im Wasser treibend, mehr tot als lebendig, wird van Weyden durch das Segelschiff Ghost aufgegriffen, dessen Besatzung unter dem Kommando des brutalen Kapitäns Wolf Larsen steht. Unterwegs zur Robben-Jagd in den Pazifik, weigert sich Larsen, den Schöngeist van Weyden an Land abzusetzen. Als nach einem schweren Sturm weitere Schiffbrüchige aufgenommen werden, darunter auch die bezaubernde Dichterin Maud Brewster, in die sich beide Männer verlieben, gipfelt ihre Rivalität auf hoher See in einem tödlichen Kampf ums Überleben

Format : AVI
Format/Info : Audio Video Interleave
Dateigre : 700 MiB
Gesamte Bitrate : 1112 Kbps

Video
Format : MPEG-4 Visual
Format profile : Streaming [email protected]
Format settings, BVOP : Ja
Format settings, QPel : Nein
Format settings, GMC : No warpoints
Format settings, Matrix : Default
Codec ID : XVID
Codec ID/Hint : XviD
Bitrate : 967 Kbps
Breite : 608 Pixel
Höhe : 336 Pixel
Bildseitenverhältnis : 16/9
Bildwiederholungsrate : 25.000 FPS
Auflösung : 8 bits
Colorimetry : 4:2:0
Scan type : Progressive
Bits/(Pixel*Frame) : 0.189
Stream size : 608 MiB
verwendete Encoder-Bibliothek : XviD 1.1.2 (UTC 2006-11-01)

Audio
Format : MPEG Audio
Format version : Version 1
Format profile : Layer 3
Codec ID : 55
Codec ID/Hint : MP3
Bitraten-Modus : Variable
Bitrate : 129 Kbps
Minimum bit rate : 135 Kbps
Kanäle : 2 Kanäle
Samplingrate : 48.0 KHz
Auflösung : 16 bits
Stream size : 80.9 MiB
verwendete Encoder-Bibliothek : LAME3.97b
Kodierungseinstellungen : ABR

related torrents

Torrent name

health leech seeds Size
 

comments (0)

Main Menu