Adventure

Cocoon (1985) Quality DVDrip MULTISUBS

  • Download 5x Faster
  • Download torrent
  • Direct Download
  • Rate this torrent +  |  -
Cocoon (1985) Quality DVDrip MULTISUBS

Free and Direct Download with Usenet 300GB+ free


Torrent info

Name:Cocoon (1985) Quality DVDrip MULTISUBS

Total Size: 697.74 MB

Magnet: Magnet Link

Seeds: 0

Leechers: 0

Stream: Watch Online @ Movie4u

Last Updated: 0000-00-00 00:00:00 (Update Now)

Torrent added: 2009-08-21 20:57:39




Torrent Files List


Optional subtitles (Size: 697.74 MB) (Files: 13)

 Optional subtitles

  Svenska.rar

554.36 KB

  Suomi.rar

25.65 KB

  Polski.rar

27.09 KB

  Norsk.rar

25.32 KB

  Notes on subtitle files.txt

2.01 KB

  Nederlands.rar

23.30 KB

  Magyar.rar

26.91 KB

  English.rar

25.61 KB

  Francais.rar

22.96 KB

  Deutsch.rar

27.17 KB

  Dansk.rar

24.94 KB

 Info about this release.txt

4.68 KB

 Cocoon (1985) Steve Guttenberg [Quality DVDrip, MULTISUBS]_Kuth.avi

696.97 MB
 

Announce URL:

Torrent description

Cocoon (1985)
Englisg DVDrip

Optional subs in srt format:
Danish, Dutch, English, Finnish, French, German, Hungarian, Norwegian, Polish
Optional Swedish subs in separate idx/sub files

Directed by Ron Howard (Apollo 13, The Da Vinci Code)

Eternal, classic Science Fiction with a heart and lots of laughs, where the senior citizens in a small town are revitalized by extraterrestial energies. Hard to forget the 'cosmic orgasm' given to Steve Guttenberg in a swimmingpool by alien Tahnee Welch (daughter of Raquel).

One of the last performances for the whole class of Hollywood oldtimers like Don Ameche (Oscar), Jessica Tandy, Hume Cronyn and Wilford Brimley.

DVDrip, Widescreen 704x368, 2-pass, great stereo AC3.
Burn tested, runs well in both my standalone DivX players.

Format/Info : Audio Video Interleave
File size : 697 MiB
Duration : 1h 52mn
Overal bit rate : 867 Kbps

Video
Format : MPEG-4 Visual
Format profile : Streaming [email protected]
Format settings, BVOP : Yes
Format settings, QPel : No
Format settings, GMC : No warppoints
Format settings, Matrix : Default
Muxing mode : Packet Bitstream
Codec ID : XVID
Codec ID/Hint : XviD
Duration : 1h 52mn
Bit rate : 729 Kbps
Width : 704 pixels
Height : 368 pixels
Display aspect ratio : 1.913
Frame rate : 25.000 fps
Resolution : 8 bits
Colorimetry : 4:2:0
Scan type : Progressive
Bits/(Pixel*Frame) : 0.113
Stream size : 586 MiB
Writing library : XviD 1.2.0.dev47 (UTC 2006-11-01)

Audio
Format : MPEG Audio
Format version : Version 1
Format profile : Layer 3
Codec ID : 55
Codec ID/Hint : MP3
Duration : 1h 52mn
Bit rate mode : Constant
Bit rate : 128 Kbps
Minimum bit rate : 128 Kbps
Channel(s) : 2 channels
Sampling rate : 48.0 KHz
Resolution : 16 bits
Stream size : 103 MiB
Writing library : LAME3.97
Encoding settings : CBR

Source: PAL retail (note that PAL/NTSC will give no problems for avi files)

Thanks a lot Kuthumi!

related torrents

Torrent name

health leech seeds Size

Cocoon (1985)

0 1 700.07 MB 0
 

comments (0)

Main Menu