Adventure

CASPER MEETS WENDY[DVDRIP][ENG] KIDZCORNER&J T R

  • Download 5x Faster
  • Download torrent
  • Direct Download
  • Rate this torrent +  |  -
CASPER MEETS WENDY[DVDRIP][ENG] KIDZCORNER&J T R

Anonymous and Free Direct Download 300GB+


Torrent info

Name:CASPER MEETS WENDY[DVDRIP][ENG] KIDZCORNER&J T R

Total Size: 699.56 MB

Magnet: Magnet Link

Seeds: 1

Leechers: 0

Stream: Watch Online @ Movie4u

Last Updated: 2015-12-28 18:20:23 (Update Now)

Torrent added: 2009-08-21 20:53:27



VPN For Torrents

Torrent Files List


Tracked by moviesb4time.biz.txt (Size: 699.56 MB) (Files: 5)

 Tracked by moviesb4time.biz.txt

1.35 KB

 Torrent downloaded from Demonoid.com-2.txt

0.05 KB

 CMWENDY.avi

699.50 MB

 594123_DV_L_F.JPG

24.13 KB

 594123_DV_L_B.JPG

33.67 KB
 

tracker

leech seeds
 

Torrent description

It's love at first fright when Casper Meets Wendy in this live-action adventure featuring an all-star cast, amazing special effects and spook-tacular fun for the whole family. When evil warlock Desmond Spellman (George Hamilton
) vows to destroy Wendy the Good Little Witch (Hilary Duff), she and her witless witch aunts (Cathy Moriarty, Shelley Duvall, Teri Garr) hide out at Sunny Brite Resort, where the vacationing Ghostly Trio has been busy scaring up mega-mischief-and making Casper's afterlife miserable! Even though Casper and Wendy are told that ghosts and witches just don't get along, when these two kindred spirits meet, it's the beginning of a boo-tiful friendship! But Desmond is closing in... and time is running out. Now Casper and Wendy must prevent a supernatural showdown between their feuding families in order to defeat Desmond's dastardly plan!

General
Complete name : C:\Users\joker\Documents\CASPER MEETS WENDY[DVDRIP][ENG]-KIDZCORNER&J.T.R\CMWENDY.avi
Format : AVI
Format/Info : Audio Video Interleave
File size : 699 MiB
Duration : 1h 30mn
Overall bit rate : 1 081 Kbps
Writing application : FairUse Wizard - http://fairusewizard.com
Writing library : The best and REALLY easy backup tool

Video
Format : MPEG-4 Visual
Format profile : Streaming [email protected]
Format settings, BVOP : Yes
Format settings, QPel : No
Format settings, GMC : No warppoints
Format settings, Matrix : Default
Muxing mode : Packed bitstream
Codec ID : XVID
Codec ID/Hint : XviD
Duration : 1h 30mn
Bit rate : 943 Kbps
Width : 528 pixels
Height : 384 pixels
Display aspect ratio : 1.375
Frame rate : 25.000 fps
Resolution : 24 bits
Colorimetry : 4:2:0
Scan type : Progressive
Bits/(Pixel*Frame) : 0.186
Stream size : 610 MiB (87%)
Writing library : XviD 1.2.0.dev47 (UTC 2006-11-01)

Audio
Format : MPEG Audio
Format version : Version 1
Format profile : Layer 3
Codec ID : 55
Codec ID/Hint : MP3
Duration : 1h 30mn
Bit rate mode : Constant
Bit rate : 128 Kbps
Minimum bit rate : 128 Kbps
Channel(s) : 2 channels
Sampling rate : 48.0 KHz
Resolution : 16 bits
Stream size : 82.8 MiB (12%)
Alignment : Aligned on interleaves
Interleave, duration : 40 ms (1.00 video frame)
Interleave, preload duration : 504 ms
Writing library : LAME3.97
Encoding settings : CBR

related torrents

Torrent name

health leech seeds Size
 


comments (0)

Main Menu