Adventure

Australia[DVDRip][ENG][NLSUB]

  • Download 5x Faster
  • Download torrent
  • Direct Download
  • Rate this torrent +  |  -
Australia[DVDRip][ENG][NLSUB]

Free and Direct Download with Usenet 300GB+ free


Torrent info

Name:Australia[DVDRip][ENG][NLSUB]

Total Size: 1.37 GB

Magnet: Magnet Link

Seeds: 0

Leechers: 4

Stream: Watch Online @ Movie4u

Last Updated: 2010-07-18 14:57:40 (Update Now)

Torrent added: 2009-08-21 20:47:48




Torrent Files List


Autralia - ACB CD 2.avi (Size: 1.37 GB) (Files: 3)

 Autralia - ACB CD 2.avi

700.33 MB

 ACB Team!.txt

0.12 KB

 Australia - ACB CD 1.avi

700.45 MB
 

Announce URL: http://tracker.thepiratebay.org/announce

Torrent description



ACB-Team.eu = http://www.acb-team.eu.tc/
Uploaded By Yanick

*******************************************************************************
Australië / Verenigde Staten
Drama / Avontuur
165 minuten

geregisseerd door Baz Luhrmann
met Nicole Kidman, Hugh Jackman en David Wenham

Australië, even voor de Tweede Wereldoorlog. Een Engelse aristocrate (Kidman) erft een ranch ter grote van Maryland. Wanneer Engelse veebaronnen het gemunt hebben op haar grond, sluit ze zich met tegenzin aan bij een ruwe veedrijver (Jackman) om zo haar 1500 runderen over honderden kilometers land te drijven.

*********************************************************************************
CD 1

General
Complete name : Australia - ACB CD 1.avi
Format : AVI
Format/Info : Audio Video Interleave
File size : 700 MiB
Duration : 1h 17mn
Overall bit rate : 1 270 Kbps
Writing application : VirtualDubMod 1.5.4.1 (build 2178/release)
Writing library : VirtualDubMod build 2178/release

Video
Format : MPEG-4 Visual
Format profile : Streaming [email protected]
Format settings, BVOP : Yes
Format settings, QPel : No
Format settings, GMC : No warppoints
Format settings, Matrix : Custom
Codec ID : XVID
Codec ID/Hint : XviD
Duration : 1h 17mn
Bit rate : 879 Kbps
Width : 608 pixels
Height : 272 pixels
Display aspect ratio : 2.25
Frame rate : 25.000 fps
Resolution : 24 bits
Colorimetry : 4:2:0
Scan type : Progressive
Bits/(Pixel*Frame) : 0.213
Stream size : 485 MiB (69%)
Writing library : XviD 1.2.0.dev47 (UTC 2006-11-01)

Audio
Format : AC-3
Format/Info : Audio Coding 3
Codec ID : 2000
Duration : 1h 17mn
Bit rate mode : Constant
Bit rate : 384 Kbps
Channel(s) : 2 channels
Channel positions : L R
Sampling rate : 48.0 KHz
Stream size : 212 MiB (30%)
Alignment : Split accross interleaves
Interleave, duration : 96 ms (2.40 video frames)
Interleave, preload duration : 96 ms
Language : English / English

______________________________________________________________________________________
CD 2

General
Complete name : Autralia - ACB CD 2.avi
Format : AVI
Format/Info : Audio Video Interleave
File size : 700 MiB
Duration : 1h 19mn
Overall bit rate : 1 225 Kbps
Writing application : VirtualDubMod 1.5.4.1 (build 2178/release)
Writing library : VirtualDubMod build 2178/release

Video
Format : MPEG-4 Visual
Format profile : Streaming [email protected]
Format settings, BVOP : Yes
Format settings, QPel : No
Format settings, GMC : No warppoints
Format settings, Matrix : Custom
Codec ID : XVID
Codec ID/Hint : XviD
Duration : 1h 19mn
Bit rate : 835 Kbps
Width : 608 pixels
Height : 272 pixels
Display aspect ratio : 2.25
Frame rate : 25.000 fps
Resolution : 24 bits
Colorimetry : 4:2:0

*****************************************************************************

ACB-Team.eu = http://www.acb-team.eu.tc/
Uploaded By Yanick

related torrents

Torrent name

health leech seeds Size
 

comments (0)

Main Menu