Adventure

2001 A Space Odyssey [1968] DVDRip N!CK

  • Download 5x Faster
  • Download torrent
  • Direct Download
  • Rate this torrent +  |  -
2001 A Space Odyssey [1968] DVDRip N!CK

Free and Direct Download with Usenet.nl 300GB+ free


Torrent info

Name:2001 A Space Odyssey [1968] DVDRip N!CK

Total Size: 707.31 MB

Magnet: Magnet Link

Seeds: 0

Leechers: 0

Stream: Watch Online @ Movie4u

Last Updated: 2016-08-28 08:27:07 (Update Now)

Torrent added: 2009-08-21 20:40:37





Torrent Files List


Release Info.txt (Size: 707.31 MB) (Files: 7)

 Release Info.txt

0.00 KB

 Sample.avi

8.42 MB

 2001 - A Space Odyssey [1968] DVDRip - N!CK.avi

698.70 MB

 Subtitles

  2001 - A Space Odyssey [1968] DVDRip [ROM].srt

45.81 KB

  2001 - A Space Odyssey [1968] DVDRip [FRE].srt

45.89 KB

  2001 - A Space Odyssey [1968] DVDRip [SPA].srt

49.54 KB

  2001 - A Space Odyssey [1968] DVDRip [ENG].srt

51.87 KB
 

tracker

leech seeds
 

Torrent description

General
Complete name : C:\2001 - A Space Odyssey [1968] DVDRip - N!CK\2001 - A Space Odyssey [1968] DVDRip - N!CK.avi
Format : AVI
Format/Info : Audio Video Interleave
File size : 699 MiB
Duration : 2h 28mn
Overal bit rate : 656 Kbps

Video
Format : MPEG-4 Visual
Format profile : Streaming [email protected]
Format settings, BVOP : Yes
Format settings, QPel : No
Format settings, GMC : No warppoints
Format settings, Matrix : Default
Codec ID : XVID
Codec ID/Hint : XviD
Duration : 2h 28mn
Bit rate : 547 Kbps
Width : 640 pixels
Height : 288 pixels
Display aspect ratio : 2.222
Frame rate : 23.976 fps
Resolution : 8 bits
Colorimetry : 4:2:0
Scan type : Progressive
Bits/(Pixel*Frame) : 0.124
Stream size : 583 MiB
Writing library : XviD 50

Audio
Format : MPEG Audio
Format version : Version 1
Format profile : Layer 3
Codec ID : 55
Codec ID/Hint : MP3
Bit rate mode : Constant
Bit rate : 96.0 Kbps
Channel(s) : 2 channels
Sampling rate : 48.0 KHz
Resolution : 16 bits
Stream size : 102 MiB

NOTE : The opening overture, Ligeti's 'Atmospheres', plays over a completely black screen for the film's first few minutes (so please no complaints that you have audio w/ no picture). Meant to be symbolic of the pre-creation era before the birth of the universe, it sets the tone and heightens the senses for the film you are about to see. Similarly, the film closes with Johann Strauss' 'The Blue Danube Waltz', which also plays over a black screen.

related torrents

Torrent name

health leech seeds Size
 

comments (0)

Main Menu