Adventure

1492 Conquest of Paradise AC3 5,1 DVDRip[Eng]1992

  • Download 5x Faster
  • Download torrent
  • Direct Download
  • Rate this torrent +  |  -
1492 Conquest of Paradise AC3 5,1 DVDRip[Eng]1992

Free and Direct Download with Usenet.nl 300GB+ free


Torrent info

Name:1492 Conquest of Paradise AC3 5,1 DVDRip[Eng]1992

Total Size: 1.70 GB

Magnet: Magnet Link

Seeds: 0

Leechers: 0

Stream: Watch Online @ Movie4u

Last Updated: 2015-04-11 03:14:20 (Update Now)

Torrent added: 2009-08-21 20:40:09





Torrent Files List


Torrent downloaded from Demonoid.com.txt (Size: 1.70 GB) (Files: 4)

 Torrent downloaded from Demonoid.com.txt

0.05 KB

 1492-Conquest of Paradise-AC3-5,1-DVDRip[Eng]1992.txt

2.61 KB

 1492-Conquest of Paradise-AC3-5,1-DVDRip[Eng]1992.jpg

1.28 MB

 1492-Conquest of Paradise-AC3-5,1-DVDRip[Eng]1992.avi

1.70 GB
 

tracker

leech seeds
 

Torrent description

http://www.imdb.com/title/tt0103594/

User Rating:6.2/10 - 8,828 votes

Adventure,Biography,Drama,History

Director:Ridley Scott

Cast:Gérard Depardieu/Armand Assante/Sigourney Weaver, and others.

Plot:
Big budget account of Christopher Columbus' discovery of the Americas. Released in 1992 to celebrate the 500th anniversary of the discovery.
Shows the disastrous effects the Europeans had on the original inhabitants, and Columbus' struggle to civilize the New World...

Info:

Cover included.

General
Complete name : 1492-Conquest of Paradise-AC3-5,1-DVDRip[Eng]1992.avi
Format : AVI
Format/Info : Audio Video Interleave
File size : 1.70 GiB
Duration : 2h 29mn
Overall bit rate : 1 629 Kbps
Writing application : VirtualDubMod 1.5.4.1 (build 2178/release)
Writing library : VirtualDubMod build 2178/release

Video
Format : MPEG-4 Visual
Format profile : Streaming [email protected]
Format settings, BVOP : Yes
Format settings, QPel : No
Format settings, GMC : No warppoints
Format settings, Matrix : Default
Muxing mode : Packed bitstream
Codec ID : XVID
Codec ID/Hint : XviD
Duration : 2h 29mn
Bit rate : 1 174 Kbps
Width : 720 pixels
Height : 304 pixels
Display aspect ratio : 2.35
Frame rate : 25.000 fps
Resolution : 24 bits
Colorimetry : 4:2:0
Scan type : Progressive
Bits/(Pixel*Frame) : 0.215
Stream size : 1.22 GiB (72%)
Writing library : XviD 50

Audio
Format : AC-3
Format/Info : Audio Coding 3
Codec ID : 2000
Duration : 2h 29mn
Bit rate mode : Constant
Bit rate : 448 Kbps
Channel(s) : 6 channels
Channel positions : Front: L C R, Surround: L R, LFE
Sampling rate : 48.0 KHz
Stream size : 478 MiB (27%)
Alignment : Split accross interleaves
Interleave, duration : 80 ms (2.00 video frames)
Interleave, preload duration : 500 ms
Language : English

Enjoy...

related torrents

Torrent name

health leech seeds Size
 

comments (0)

Main Menu