Action

Aliens 1986 SE 720p HDTV DTS x264 DON

  • Download 5x Faster
  • Download torrent
  • Direct Download
  • Rate this torrent +  |  -
Aliens 1986 SE 720p HDTV DTS x264 DON

Free and Direct Download with Usenet.nl 300GB+ free


Torrent info

Name:Aliens 1986 SE 720p HDTV DTS x264 DON

Total Size: 8.04 GB

Magnet: Magnet Link

Seeds: 0

Leechers: 2

Stream: Watch Online @ Movie4u

Last Updated: 0000-00-00 00:00:00 (Update Now)

Torrent added: 2009-08-21 20:08:44





Torrent Files List


Sample.mkv (Size: 8.04 GB) (Files: 3)

 Sample.mkv

103.24 MB

 Aliens.1986.SE.720p.HDTV.DTS.x264-DON.nfo

4.75 KB

 Aliens.1986.SE.720p.HDTV.DTS.x264-DON.mkv

7.94 GB
 

Announce URL: http://tracker.publicbt.com/announce

Torrent description

The planet from Alien (1979) has been colonized, but contact is lost. This time, the rescue team has impressive firepower, enough?

http://www.imdb.com/title/tt0090605/

General
Complete name: D:\dll\hd movie\Aliens.1986.SE.720p.HDTV.DTS.x264-DON\Aliens.1986.SE.720p.HDTV.DTS.x264-DON.mkv
Format: Matroska
File size: 7.94 GiB
Duration: 2h 34mn
Overall bit rate: 7 366 Kbps
Encoded date: UTC 2009-01-09 07:42:16
Writing application: mkvmerge v2.4.1 ('Use Me') built on Dec 5 2008 18:30:05
Writing library: libebml v0.7.7 + libmatroska v0.8.1

Video
ID: 1
Format: AVC
Format/Info: Advanced Video Codec
Format profile: [email protected]
Format settings, CABAC: Yes
Format settings, ReFrames: 5 frames
Muxing mode: Container [email protected]
Codec ID: V_MPEG4/ISO/AVC
Duration: 2h 34mn
Bit rate: 6 451 Kbps
Nominal bit rate: 6 609 Kbps
Width: 1 280 pixels
Height: 696 pixels
Display aspect ratio: 16/9
Frame rate: 23.976 fps
Resolution: 24 bits
Colorimetry: 4:2:0
Scan type: Progressive
Bits/(Pixel*Frame): 0.302
Stream size: 6.95 GiB (87%)
Writing library: x264 core 65 r1072M f586ba5
Encoding settings: cabac=1 / ref=5 / deblock=1:-3:-3 / analyse=0x3:0x113 / me=umh / subme=9 / psy_rd=1.0:0.0 / mixed_ref=1 / me_range=32 / chroma_me=1 / trellis=2 / 8x8dct=1 / cqm=0 / deadzone=21,11 / chroma_qp_offset=-2 / threads=6 / nr=0 / decimate=1 / mbaff=0 / bframes=6 / b_pyramid=1 / b_adapt=2 / b_bias=0 / direct=3 / wpredb=1 / keyint=250 / keyint_min=25 / scenecut=40(pre) / rc=2pass / bitrate=6609 / ratetol=1.0 / qcomp=0.60 / qpmin=10 / qpmax=51 / qpstep=4 / cplxblur=20.0 / qblur=0.5 / ip_ratio=1.40 / pb_ratio=1.30 / aq=1:0.30
Language: English

Audio
ID: 2
Format: DTS
Format/Info: Digital Theater Systems
Codec ID: A_DTS
Duration: 2h 34mn
Bit rate mode: Constant
Bit rate: 768 Kbps
Channel(s): 6 channels
Channel positions: Front: L C R, Surround: L R, LFE
Sampling rate: 48.0 KHz
Resolution: 24 bits
Stream size: 848 MiB (10%)
Language: English

related torrents

Torrent name

health leech seeds Size
 

comments (0)

Main Menu