Heavy/Death Metal

Black Sabbath Technical Ecstasy (1976) [LOSSLESS FLAC][Tntvillage Scambioetico]

  • Download 5x Faster
  • Download torrent
  • Direct Download
  • Rate this torrent +  |  -

Torrent info

Name:Black Sabbath Technical Ecstasy (1976) [LOSSLESS FLAC][Tntvillage Scambioetico]

Total Size: 315.63 MB

Magnet: Magnet Link

Seeds: 5

Leechers: 2

Stream: Watch Online @ Movie4u

Last Updated: 2011-02-24 07:31:24 (Update Now)

Torrent added: 2009-08-21 19:34:05



VPN For Torrents

Torrent Files List


Black Sabbath - Technical Ecstasy.log (Size: 315.63 MB) (Files: 13)

 Black Sabbath - Technical Ecstasy.log

3.97 KB

 Cover_Back.jpg

2.57 MB

 Cover_Back_inside.jpg

2.13 MB

 Cover_Front.jpg

7.94 MB

 Cover_Inside.jpg

6.79 MB

 06 - Black Sabbath - Rock 'N' Roll Doctor.flac

24.29 MB

 01 - Black Sabbath - Back Street Kids.flac

29.98 MB

 07 - Black Sabbath - She's Gone.flac

32.91 MB

 03 - Black Sabbath - It's Alright.flac

31.73 MB

 05 - Black Sabbath - All Moving Parts (Stand Still).flac

35.49 MB

 04 - Black Sabbath - Gypsy.flac

39.35 MB

 02 - Black Sabbath - You Won't Change Me.flac

47.39 MB

 08 - Black Sabbath - Dirty Women.flac

55.08 MB
 

Announce URL: http://tracker.tntvillage.scambioetico.org:2710/announce

Torrent description

Black Sabbath - Technical Ecstasy (1976) [LOSSLESS FLAC][Tntvillage.Scambioetico]



Visit this link:More info on this torrent

Visit this link:All My Torrent



Black Sabbath - Technical Ecstasy


by RDaneel



Image Link




[::Album Information::]

Title: Technical Ecstasy
Years: 1976
Genre: Heavy Metal
Production: Essential! - Castle Communications PLC



[::Tracklist::]

1. Back Street Kids (Iommi, Butler, Ward, Osbourne) - 3:49
2. You Won't Change Me (Iommi, Butler, Ward, Osbourne) - 6:44
3. It's All Right - Vocalist Ward (Iommi, Butler, Ward, Osbourne) - 4:06
4. Gypsy ( Iommi, Butler, Ward, Osbourne) - 5:11
5. All Moving Parts (Stand Still) (Iommi, Butler, Ward, Osbourne) - 5:06
6. Rock 'N' Roll Doctor (Iommi, Butler, Ward, Osbourne) - 3:34
7. She's Gone (Iommi, Butler, Ward, Osbourne) - 4:57
8. Dirty Women (Iommi, Butler, Ward, Osbourne) - 7:09



[::Review::]

Technical Ecstasy continued the band's separation from its signature doom and darkness that had been such a trademark of the band's early career. While the album's lyrics dealt with topics such as drug dealers, prostitution, and transvestites, the music itself was seldom dark, and tracks like "Rock 'n' Roll Doctor" and "It's Alright" (the latter sung by drummer Bill Ward—a decision supported by Ozzy Osbourne), were very different from Black Sabbath's earlier
recordings. Also, the band continued experimenting with keyboards and synthesizers more so than previous albums. The track "She's Gone" features orchestrations.
Osbourne left the band briefly following the release of the album. He would eventually rejoin for the follow-up album, Never Say Die!.
The cover art is designed by Hipgnosis and is meant to represent two robots having sex. Osbourne once described it as "two robots screwing on an escalator."
The UK release had a two-sided lyric/credit-insert.
"Gypsy", "Dirty Women", "Rock 'n' Roll Doctor" and (briefly) "All Moving Parts (Stand Still)" were played live on the supporting tour.
"It's Alright" was often covered live by Guns N' Roses, and included in their Live Era: '87–'93 album.
It was certified Gold on June 19, 1997 and peaked at number 51 on the Billboard Pop Album chart



[::Technical data::]

Codec usato: Flac.

Tracce rippate da cd originale


Exact Audio Copy V0.99 prebeta 5 from 4. May 2009

EAC extraction logfile from 21. August 2009, 1:48

Black Sabbath / Technical Ecstasy

Used drive : TSSTcorpCDDVDW SH-S202J Adapter: 1 ID: 0

Read mode : Secure
Utilize accurate stream : Yes
Defeat audio cache : No
Make use of C2 pointers : No

Read offset correction : 6
Overread into Lead-In and Lead-Out : No
Fill up missing offset samples with silence : Yes
Delete leading and trailing silent blocks : No
Null samples used in CRC calculations : Yes
Used interface : Installed external ASPI interface
Gap handling : Not detected, thus appended to previous track

Used output format : User Defined Encoder
Selected bitrate : 1024 kBit/s
Quality : High
Add ID3 tag : No
Command line compressor : C:\Programmi\Exact Audio Copy\FLAC\FLAC.EXE
Additional command line options : -8 -V -T "artist=%a" -T "title=%t" -T "album=%g" -T "date=%y"

-T "tracknumber=%n" -T "genre=%m" %s


TOC of the extracted CD

Track | Start | Length | Start sector | End sector
---------------------------------------------------------
1 | 0:00.00 | 3:49.07 | 0 | 17181
2 | 3:49.07 | 6:44.10 | 17182 | 47491
3 | 10:33.17 | 4:06.10 | 47492 | 65951
4 | 14:39.27 | 5:11.48 | 65952 | 89324
5 | 19:51.00 | 5:06.30 | 89325 | 112304
6 | 24:57.30 | 3:34.40 | 112305 | 128394
7 | 28:31.70 | 4:57.20 | 128395 | 150689
8 | 33:29.15 | 7:09.25 | 150690 | 182889


Track 1

Filename C:\Musica\Musica_Rippata\Black Sabbath\Technical Ecstasy\01 - Black Sabbath - Back

Street Kids.wav

Peak level 100.0 %
Track quality 100.0 %
Copy CRC BBAF1B42
Accurately ripped (confidence 22) [3515752C]
Copy OK

Track 2

Filename C:\Musica\Musica_Rippata\Black Sabbath\Technical Ecstasy\02 - Black Sabbath - You

Won't Change Me.wav

Peak level 97.8 %
Track quality 99.9 %
Copy CRC 8A961A00
Accurately ripped (confidence 22) [CCB503DF]
Copy OK

Track 3

Filename C:\Musica\Musica_Rippata\Black Sabbath\Technical Ecstasy\03 - Black Sabbath - It's

Alright.wav

Peak level 100.0 %
Track quality 100.0 %
Copy CRC 918EAA21
Accurately ripped (confidence 22) [FAE5AB6b]
Copy OK

Track 4

Filename C:\Musica\Musica_Rippata\Black Sabbath\Technical Ecstasy\04 - Black Sabbath -

Gypsy.wav

Peak level 99.7 %
Track quality 100.0 %
Copy CRC A17EBD3C
Accurately ripped (confidence 22) [02AA718D]
Copy OK

Track 5

Filename C:\Musica\Musica_Rippata\Black Sabbath\Technical Ecstasy\05 - Black Sabbath - All

Moving Parts (Stand Still).wav

Peak level 94.7 %
Track quality 100.0 %
Copy CRC 4D5EBCE1
Accurately ripped (confidence 22) [54FBB3A6]
Copy OK

Track 6

Filename C:\Musica\Musica_Rippata\Black Sabbath\Technical Ecstasy\06 - Black Sabbath - Rock

'N' Roll Doctor.wav

Peak level 90.0 %
Track quality 99.9 %
Copy CRC 98106A4E
Accurately ripped (confidence 22) [62062D45]
Copy OK

Track 7

Filename C:\Musica\Musica_Rippata\Black Sabbath\Technical Ecstasy\07 - Black Sabbath -

She's Gone.wav

Peak level 97.1 %
Track quality 100.0 %
Copy CRC A9F9A9B5
Accurately ripped (confidence 22) [567560FC]
Copy OK

Track 8

Filename C:\Musica\Musica_Rippata\Black Sabbath\Technical Ecstasy\08 - Black Sabbath -

Dirty Women.wav

Peak level 100.0 %
Track quality 100.0 %
Copy CRC 1D95097C
Accurately ripped (confidence 22) [658B82F9]
Copy OK


All tracks accurately ripped

No errors occurred

End of status report





Visit http://www.tntvillage.scambioetico.org/



related torrents

Torrent name

health leech seeds Size
 


comments (0)

Main Menu