Action

Pontypool custom dvd [email protected] speeds torrent [supreme speeds com]

  • Download 5x Faster
  • Download torrent
  • Direct Download
  • Rate this torrent +  |  -

Torrent info

Name:Pontypool custom dvd [email protected] speeds torrent [supreme speeds com]

Total Size: 1.05 GB

Magnet: Magnet Link

Seeds: 0

Leechers: 0

Stream: Watch Online @ Movie4u

Last Updated: 2009-12-11 03:27:07 (Update Now)

Torrent added: 2009-08-21 16:26:02




Torrent Files List


VIDEO_TS (Size: 1.05 GB) (Files: 8)

 VIDEO_TS

  VTS_01_2.VOB

40.05 MB

  VTS_01_1.VOB

1.00 GB

  VTS_01_0.VOB

15.18 MB

  VTS_01_0.IFO

72.00 KB

  VTS_01_0.BUP

72.00 KB

  VIDEO_TS.VOB

60.00 KB

  VIDEO_TS.IFO

12.00 KB

  VIDEO_TS.BUP

12.00 KB
 

Announce URL: http://supreme-speeds.com/announce.php?passkey=1c620190651fbc0715e1f5d7b02888f8

Torrent description

come get dvd screener of hangover and termator at great speeds @ http://supreme-speeds.com/

these files r ready to burn staright to disc threw nero no converting to do

source i used Pontypool 2008 PPVRiP XViD

Video
ID : 224 (0xE0)
Format : MPEG Video
Format version : Version 2
Format profile : [email protected]
Format settings, Matrix : Default
Duration : 30s 30ms
Bit rate mode : Variable
Bit rate : 3 880 Kbps
Nominal bit rate : 9 100 Kbps
Width : 720 pixels
Height : 480 pixels
Display aspect ratio : 4/3
Frame rate : 29.970 fps
Standard : NTSC
Colorimetry : 4:2:0
Scan type : Progressive
Bits/(Pixel*Frame) : 0.375
Stream size : 13.9 MiB (91%)

Audio
ID : 128 (0x80)
Format : AC-3
Format/Info : Audio Coding 3
Duration : 29s 856ms
Bit rate mode : Constant
Bit rate : 192 Kbps
Channel(s) : 2 channels
Channel positions : L R
Sampling rate : 48.0 KHz
Stream size : 700 KiB (5%)

related torrents

Torrent name

health leech seeds Size
 

comments (0)

Main Menu