Action

Point of No Return (1993) MULTISUBS

  • Download 5x Faster
  • Download torrent
  • Direct Download
  • Rate this torrent +  |  -
Point of No Return (1993) MULTISUBS

Free and Direct Download with Usenet.nl 300GB+ free


Torrent info

Name:Point of No Return (1993) MULTISUBS

Total Size: 703.28 MB

Magnet: Magnet Link

Seeds: 0

Leechers: 0

Stream: Watch Online @ Movie4u

Last Updated: 0000-00-00 00:00:00 (Update Now)

Torrent added: 2009-08-21 16:24:25





Torrent Files List


Optional subtitles (Size: 5.58 MB) (Files: 13)

 Optional subtitles

  Svenska.rar

453.08 KB

  Suomeksi.rar

510.12 KB

  Polski.rar

563.61 KB

  Portuges.rar

499.94 KB

  Notes on subtitle files.txt

1.69 KB

  Norsk.rar

477.03 KB

  Italiano.rar

505.21 KB

  Francais.rar

542.22 KB

  English.rar

557.19 KB

  Espanol.rar

538.42 KB

  Deutsch.rar

559.44 KB

  Dansk.rar

498.30 KB

 Info about this release.txt

5.03 KB
 

Announce URL:

Torrent description

Point of No Return (1993)

aka The Assassin (1993)
Kodenavn Nina (1993)
Code Name Nina (1993)

Optional subtitles in separate idx/sub files:
Danish, English, Finnish, German, French, Italian, Norwegian, Polish, Portugese, Spanish, Swedish. (Sorry, Dutch friends, your language was not on the DVD.)

With Bridget Fonda, Gabriel Byrne, Dermot Mulroney, Harvey Keitel and Anne Bancroft

A young woman is forced to become a secret killer for the government. American remake of Luc Besson's 'Nikita' - in my opinion better than the original. The actors are more interesting, effects are better, and we actually see the hotel blow up.

Widescreen, DVDrip XviD 2-pass 720x288, really good stereo.
Burn tested, runs well in both my standalone DivX players.

This is a new and improved rip of the torrent I uploaded February 11, 2008. Since then, my ripping procedures have improved so much that I can offer much better quality with the same filesize, and lots of subtitles. The old torrent has been so popular that I thought it deserves an improved replacement. The old rip was 576x320 pixels with no subs.

Here are the specs of this new rip:

Format/Info : Audio Video Interleave
File size : 698 MiB
Duration : 1h 43mn
Overal bit rate : 939 Kbps

Video
Format : MPEG-4 Visual
Format profile : Streaming [email protected]
Format settings, BVOP : Yes
Format settings, QPel : No
Format settings, GMC : No warppoints
Format settings, Matrix : Default
Muxing mode : Packet Bitstream
Codec ID : XVID
Codec ID/Hint : XviD
Duration : 1h 43mn
Bit rate : 801 Kbps
Width : 720 pixels
Height : 288 pixels
Display aspect ratio : 2.500
Frame rate : 25.000 fps
Resolution : 8 bits
Colorimetry : 4:2:0
Scan type : Progressive
Bits/(Pixel*Frame) : 0.155
Stream size : 595 MiB
Writing library : XviD 1.2.0.dev47 (UTC 2006-11-01)

Audio
Format : MPEG Audio
Format version : Version 1
Format profile : Layer 3
Codec ID : 55
Codec ID/Hint : MP3
Duration : 1h 43mn
Bit rate mode : Constant
Bit rate : 128 Kbps
Minimum bit rate : 128 Kbps
Channel(s) : 2 channels
Sampling rate : 48.0 KHz
Resolution : 16 bits
Stream size : 95.1 MiB
Writing library : LAME3.97
Encoding settings : CBR

Source: PAL retail (note that PAL/NTSC will give no problems for avi files)

Thanks to Kuthumi!

related torrents

Torrent name

health leech seeds Size
 

comments (0)

Main Menu