Action

Pirates of the Caribbean Dead Man's Chest(2006)[Hindi&Eng][Dual Audio] DVDRip x264 ~ Smeet

  • Download 5x Faster
  • Download torrent
  • Direct Download
  • Rate this torrent +  |  -

Torrent info

Name:Pirates of the Caribbean Dead Man's Chest(2006)[Hindi&Eng][Dual Audio] DVDRip x264 ~ Smeet

Total Size: 801.66 MB

Magnet: Magnet Link

Seeds: 0

Leechers: 0

Stream: Watch Online @ Movie4u

Last Updated: 2016-05-27 14:34:51 (Update Now)

Torrent added: 2009-08-21 16:20:31





Torrent Files List


smeet_mkv.nfo (Size: 801.66 MB) (Files: 3)

 smeet_mkv.nfo

7.18 KB

 Pirates of the Caribbean - Dead Man's Chest(2006)[Hindi&Eng][Dual Audio]-DVDRip-x264 ~ Smeet.mkv

801.56 MB

 Pirates of the Caribbean - Dead Man's Chest(2006).srt

88.48 KB
 

tracker

leech seeds
 

Torrent description


################## TM
##^^^^^^^^^^^^^^^^####
############## #^^^^^^^^^^^^^^^^^^^##
###### #### #########^^^^^# #^^^^^#########^^^^^#
###### ####### ###########^^^# #^^^^^^^^^^^^^#^^^^^#
####### ####### ############^^## #^^^^^^^^^^^^^#^^^^^#
################################# ############^^^###^^^^^^^^^^^^^#^^^^^#
############################################^#^^#^^^^^^^^^^^^^^^^#^^^^^#
#####################################^^^^^^^^#^^#########^^^#######^^^^#####
####################################^^^^^^^^^##^^^^^^^^^##^^#^^^^^^^^^^^^^^##
####################################^^^^^^^^^^###^^^^^^^^#^^#^^^^^^^^^^^^^^^##
######################### ##########^^^^^####^^##^^^^^^^^#^^#^^^^^^^^^^^^^^^##
####################################^########^^#^#########^^######^^^^^######
#############################################^^#^#^^^^^^^^^^^^^^^#^^^^^#
##############################################^#^#^^^^^^^^^^^^^^^#^^^^^#
##############################################^#^#^^^^^^^^^^^^^^^#^^^^^#
##################################^^^^^^^^^^#^#^^^^^^^^^^^^^^^#^^^^^#
############################################^^^#^##^^^^^^^^^^^^^^#^^^^^#
##############################################^#^^^###^^^^^^^^^^^#^^^^^#
#################################################^^^^#^^^^^^^^^^^#^^^^^#
###############################################^######^^^^^^^^^^^#^^^^^#
###################### ###### ##############^^^^^^^^^^^########^^^^^#
###################### ###### ##############^^##^^^^^^^# #^^^^^^#
###################### ###### ##################^^^^^^^# #^^^^^^#
############## ############### ######^^# ########
############## ############### ###
#############
MEANS QUALITY

=======================================================
= Pirates of the Caribbean: Dead Man's Chest (2006) =
=======================================================

|##############################################################################|
| |
|GENERAL INFORMATION |
|=================== |
|Format : Matroska |
|File size : 802 MiB |
|Duration : 2h 30mn |
|Overall bit rate : 744 Kbps |
|Encoded date : UTC 2009-08-17 06:21:46 |
| : |
|Language : DUAL AUDIO[English,Hindi] Source: DVD|
|SUBTITLE : English |
|GENRE : Action | Adventure | Fantasy |
|IMDB LINK : http://www.imdb.com/title/tt0383574/ |
|IMDB RATING : 7.3/10 |
|RIPPER : SMEET |
|##############################################################################|

|##############################################################################|
| |
|Video |
|Format : AVC |
|Format/Info : Advanced Video Codec |
|Codec ID : V_MPEG4/ISO/AVC |
|Muxing mode : Container [email protected] |
|Duration : 2h 30mns |
|Width : 608 pixels |
|Height : 240 pixels |
|Display aspect ratio : 2.533 |
|Frame rate : 23.976 fps |
|Resolution : 24 bits |
|Colorimetry : 4:2:0 |
|Scan type : Progressive |
|Bits/(Pixel*Frame) : 0.144 |
|Stream size : 544 MiB (68%) |
|Writing library : x264 core 68 r1179M 96e2229 rter. |
|##############################################################################|
|Audio #1&2[Hindi, English] |
|ID : 2 |
|Format : MPEG Audio |
|Format version : Version 1 |
|Format profile : Layer 3 |
|Codec ID : A_MPEG/L3 |
|Codec ID/Hint : MP3 |
|Duration : 2h 30mn |
|Bit rate mode : Constant |
|Bit rate : 112 Kbps |
|Channel(s) : 2 channels |
|Sampling rate : 44.1 KHz |
|Resolution : 16 bits |
|Stream size : 121 MiB (15%) |
|Writing library : LAME3.98r |
|Encoding settings : -m j -V 4 -q 2 -lowpass 15.6 -b 112 |
| |
| |
| |
| |
| ALL MY RELEAASES AVAILABLE AT http://thepiratebay.org/user/bonkingph/ |
| http://www.ahashare.com/account-details.php?id=28583 |
|##############################################################################|
www.AhaShare.Com




related torrents

Torrent name

health leech seeds Size
 

comments (0)

Main Menu