Action

Perfect Hideout 2008 DVDRip XviD SVD [

  • Download 5x Faster
  • Download torrent
  • Direct Download
  • Rate this torrent +  |  -
Perfect Hideout 2008 DVDRip XviD SVD [

Free and Direct Download with Usenet.nl 300GB+ free


Torrent info

Name:Perfect Hideout 2008 DVDRip XviD SVD [

Total Size: 691.81 MB

Magnet: Magnet Link

Seeds: 0

Leechers: 0

Stream: Watch Online @ Movie4u

Last Updated: 0000-00-00 00:00:00 (Update Now)

Torrent added: 2009-08-21 16:15:39





Torrent Files List


Perfect.Hideout.2008.DVDRip.XviD-SVD.part49.rar (Size: 691.81 MB) (Files: 51)

 Perfect.Hideout.2008.DVDRip.XviD-SVD.part49.rar

5.15 MB

 Perfect.Hideout.2008.DVDRip.XviD-SVD.part48.rar

14.31 MB

 Perfect.Hideout.2008.DVDRip.XviD-SVD.part47.rar

14.31 MB

 Perfect.Hideout.2008.DVDRip.XviD-SVD.part46.rar

14.31 MB

 Perfect.Hideout.2008.DVDRip.XviD-SVD.part45.rar

14.31 MB

 Perfect.Hideout.2008.DVDRip.XviD-SVD.part44.rar

14.31 MB

 Perfect.Hideout.2008.DVDRip.XviD-SVD.part43.rar

14.31 MB

 Perfect.Hideout.2008.DVDRip.XviD-SVD.part42.rar

14.31 MB

 Perfect.Hideout.2008.DVDRip.XviD-SVD.part41.rar

14.31 MB

 Perfect.Hideout.2008.DVDRip.XviD-SVD.part40.rar

14.31 MB

 Perfect.Hideout.2008.DVDRip.XviD-SVD.part39.rar

14.31 MB

 Perfect.Hideout.2008.DVDRip.XviD-SVD.part38.rar

14.31 MB

 Perfect.Hideout.2008.DVDRip.XviD-SVD.part37.rar

14.31 MB

 Perfect.Hideout.2008.DVDRip.XviD-SVD.part36.rar

14.31 MB

 Perfect.Hideout.2008.DVDRip.XviD-SVD.part35.rar

14.31 MB

 Perfect.Hideout.2008.DVDRip.XviD-SVD.part34.rar

14.31 MB

 Perfect.Hideout.2008.DVDRip.XviD-SVD.part33.rar

14.31 MB

 Perfect.Hideout.2008.DVDRip.XviD-SVD.part32.rar

14.31 MB

 Perfect.Hideout.2008.DVDRip.XviD-SVD.part31.rar

14.31 MB

 Perfect.Hideout.2008.DVDRip.XviD-SVD.part30.rar

14.31 MB

 Perfect.Hideout.2008.DVDRip.XviD-SVD.part29.rar

14.31 MB

 Perfect.Hideout.2008.DVDRip.XviD-SVD.part28.rar

14.31 MB

 Perfect.Hideout.2008.DVDRip.XviD-SVD.part27.rar

14.31 MB

 Perfect.Hideout.2008.DVDRip.XviD-SVD.part26.rar

14.31 MB

 Perfect.Hideout.2008.DVDRip.XviD-SVD.part25.rar

14.31 MB

 Perfect.Hideout.2008.DVDRip.XviD-SVD.part24.rar

14.31 MB

 Perfect.Hideout.2008.DVDRip.XviD-SVD.part23.rar

14.31 MB

 Perfect.Hideout.2008.DVDRip.XviD-SVD.part22.rar

14.31 MB

 Perfect.Hideout.2008.DVDRip.XviD-SVD.part21.rar

14.31 MB

 Perfect.Hideout.2008.DVDRip.XviD-SVD.part20.rar

14.31 MB

 Perfect.Hideout.2008.DVDRip.XviD-SVD.part19.rar

14.31 MB

 Perfect.Hideout.2008.DVDRip.XviD-SVD.part18.rar

14.31 MB

 Perfect.Hideout.2008.DVDRip.XviD-SVD.part17.rar

14.31 MB

 Perfect.Hideout.2008.DVDRip.XviD-SVD.part16.rar

14.31 MB

 Perfect.Hideout.2008.DVDRip.XviD-SVD.part15.rar

14.31 MB

 Perfect.Hideout.2008.DVDRip.XviD-SVD.part14.rar

14.31 MB

 Perfect.Hideout.2008.DVDRip.XviD-SVD.part13.rar

14.31 MB

 Perfect.Hideout.2008.DVDRip.XviD-SVD.part12.rar

14.31 MB

 Perfect.Hideout.2008.DVDRip.XviD-SVD.part11.rar

14.31 MB

 Perfect.Hideout.2008.DVDRip.XviD-SVD.part10.rar

14.31 MB

 Perfect.Hideout.2008.DVDRip.XviD-SVD.part09.rar

14.31 MB

 Perfect.Hideout.2008.DVDRip.XviD-SVD.part08.rar

14.31 MB

 Perfect.Hideout.2008.DVDRip.XviD-SVD.part07.rar

14.31 MB

 Perfect.Hideout.2008.DVDRip.XviD-SVD.part06.rar

14.31 MB

 Perfect.Hideout.2008.DVDRip.XviD-SVD.part05.rar

14.31 MB

 Perfect.Hideout.2008.DVDRip.XviD-SVD.part04.rar

14.31 MB

 Perfect.Hideout.2008.DVDRip.XviD-SVD.part03.rar

14.31 MB

 Perfect.Hideout.2008.DVDRip.XviD-SVD.part02.rar

14.31 MB

 Perfect.Hideout.2008.DVDRip.XviD-SVD.part01.sfv

6.93 KB

 Perfect.Hideout.2008.DVDRip.XviD-SVD.part01.rar

14.31 MB

 perfect hideout.nfo

3.05 KB
 

Announce URL: http://tracker.ilovetorrents.com/announce.php

Torrent description

Perfect Hideout (2008)

User rating:4.1 / 10

IMDB http://amazon.imdb.com/title/tt1082064/

Director:Stephen Manuel

Writers:Andreas Brune, Sven Frauenhoff

Release Date:2008

Cast: Billy Zane ... Victor
Cristian Solimeno ... Nick
Melinda Y. Cohen ... Celia
Scarlett Sabet ... Nadine

Language:English



Plot: A young couple on the run take a family father as a hostage and are shocked to realize that he actually is a serial killer who just murdered the family. With the police on the outside and the killer on the inside they now have nowhere to run and nowhere to ***** all whilst trying to solve their relationship problems... This is an action packed thriller with tongue in cheek.

User Comments:the worst movies I've seen are master pieces comparing to this one


Quality:
General
Complete name : C:\downloaded\Perfect.Hideout.2008.DVDRip.XviD-SVD\Perfect.Hideout.2008.DVDRip.XviD-SVD.avi
Format : AVI
Format/Info : Audio Video Interleave
File size : 697 MiB
Duration : 1h 30mn
Overall bit rate : 1 082 Kbps
Writing application : VirtualDubMod 1.5.10.2 (build 2540/release)
Writing library : VirtualDubMod build 2540/release

Video
Format : MPEG-4 Visual
Format profile : Streaming [email protected]
Format settings, BVOP : Yes
Format settings, QPel : No
Format settings, GMC : No warppoints
Format settings, Matrix : Default
Codec ID : XVID
Codec ID/Hint : XviD
Duration : 1h 30mn
Bit rate : 939 Kbps
Width : 592 pixels
Height : 336 pixels
Display aspect ratio : 16/9
Frame rate : 25.000 fps
Resolution : 24 bits
Colorimetry : 4:2:0
Scan type : Progressive
Bits/(Pixel*Frame) : 0.189
Stream size : 605 MiB (87%)
Writing library : XviD 1.2.0.dev47 (UTC 2006-11-01)

Audio
Format : MPEG Audio
Format version : Version 1
Format profile : Layer 3
Codec ID : 55
Codec ID/Hint : MP3
Duration : 1h 30mn
Bit rate mode : Variable
Bit rate : 130 Kbps
Nominal bit rate : 128 Kbps
Channel(s) : 2 channels
Sampling rate : 48.0 KHz
Resolution : 16 bits
Stream size : 84.1 MiB (12%)
Alignment : Aligned on interleaves
Interleave, duration : 24 ms (0.60 video frame)
Interleave, preload duration : 506 ms
Writing library : LAME3.90.
Encoding settings : ABR

Link: http://amazon.imdb.com/title/tt1082064/

related torrents

Torrent name

health leech seeds Size
 

comments (0)

Main Menu