Action

PATHFINDER DEWSTRR

  • Download 5x Faster
  • Download torrent
  • Direct Download
  • Rate this torrent +  |  -
PATHFINDER DEWSTRR

Free and Direct Download with Usenet.nl 300GB+ free


Torrent info

Name:PATHFINDER DEWSTRR

Total Size: 1.08 GB

Magnet: Magnet Link

Seeds: 0

Leechers: 0

Stream: Watch Online @ Movie4u

Last Updated: 2009-12-11 03:18:09 (Update Now)

Torrent added: 2009-08-21 16:11:26





Torrent Files List


Torrent_downloaded_from_Demonoid.com.txt (Size: 1.08 GB) (Files: 14)

 Torrent_downloaded_from_Demonoid.com.txt

0.05 KB

 PATHFINDER.NFO

2.78 KB

 PATHFINDER.DEWSTRR.divx

1.08 GB

 P F 9.jpg

15.49 KB

 P F 8.jpg

15.94 KB

 P F 7.jpg

21.74 KB

 P F 6.jpg

14.32 KB

 P F 5.jpg

20.36 KB

 P F 3.jpg

15.02 KB

 P F 4.jpg

20.03 KB

 P F 10.jpg

16.59 KB

 P F 2.jpg

10.83 KB

 P F 1.jpg

24.93 KB

 P F 1.sfv

1.31 KB
 

Announce URL: http://inferno.demonoid.com:3407/announce

Torrent description

PATHFINDER DVDRIP

Action | Adventure | Drama | History | Thriller | War

Vikings visiting America before Columbus did? there are rumors of that being true. This is a movie about a young viking boy who survived a ship crash that landed on shores of America. He is found and adopted by a Indian woman and her husband who raises him as one of their own, he grows up and becomes one of them even though the other Indian warriors don't accept him, but a young Indian woman falls in love with him and when the vikings attack again all in his village are killed, he sets off on a quest alone to repel them and make them never want to come back again.

http://www.imdb.com/title/tt0446013/

Video
Format : MPEG-4 Visual
Format settings, BVOP : Yes
Format settings, QPel : No
Format settings, GMC : No warppoints
Format settings, Matrix : Default
Codec ID : DX50
Codec ID/Hint : DivX 5
Duration : 1h 47mn
Bit rate : 1 300 Kbps
Width : 720 pixels
Height : 304 pixels
Display aspect ratio : 2.35
Frame rate : 23.976 fps
Resolution : 24 bits
Colorimetry : 4:2:0
Scan type : Progressive
Bits/(Pixel*Frame) : 0.248
Stream size : 997 MiB (90%)
Title : Video
Writing library : DivX 6.8.2 (UTC 2008-05-17)

Audio
Format : MPEG Audio
Format version : Version 1
Format profile : Layer 3
Codec ID : 55
Codec ID/Hint : MP3
Duration : 1h 47mn
Bit rate mode : Constant
Bit rate : 128 Kbps
Channel(s) : 2 channels
Sampling rate : 48.0 KHz
Resolution : 16 bits
Stream size : 98.1 MiB (9%)
Alignment : Split accross interleaves
Interleave, duration : 42 ms (1.00 video frame)
Interleave, preload duration : 500 ms
Title : Audio
Writing library : LAME3.92

General
Complete name : PATHFINDER\P F 1.sfv
File size : 1.27 KiB

General
Complete name : PATHFINDER\Torrent_downloaded_from_Demonoid.com.txt
File size : 47.0 Bytes
PATHFINDER DEWSTRR preview 0
PATHFINDER DEWSTRR preview 1]
PATHFINDER DEWSTRR preview 2
PATHFINDER DEWSTRR preview 3
PATHFINDER DEWSTRR preview 4
PATHFINDER DEWSTRR preview 5
PATHFINDER DEWSTRR preview 6
PATHFINDER DEWSTRR preview 7
PATHFINDER DEWSTRR preview 8
PATHFINDER DEWSTRR preview 9
burned with windows [with a couple of other movies on a disk] and played on my philips divx ultra certified dvd player
be sure to set your dvd player on the correct aspect ratio

related torrents

Torrent name

health leech seeds Size
 

comments (0)

Main Menu