Action

Pathfinder AC3 5,1 DVDRip[Eng]2007

  • Download 5x Faster
  • Download torrent
  • Direct Download
  • Rate this torrent +  |  -
Pathfinder AC3 5,1 DVDRip[Eng]2007

Anonymous and Free Direct Download 300GB+


Torrent info

Name:Pathfinder AC3 5,1 DVDRip[Eng]2007

Total Size: 1.08 GB

Magnet: Magnet Link

Seeds: 6

Leechers: 2

Stream: Watch Online @ Movie4u

Last Updated: 2011-04-06 08:26:03 (Update Now)

Torrent added: 2009-08-21 16:11:13



VPN For Torrents

Torrent Files List


Torrent downloaded from Demonoid.com.txt (Size: 1.08 GB) (Files: 5)

 Torrent downloaded from Demonoid.com.txt

0.05 KB

 Pathfinder-AC3-5,1-DVDRip[Eng]2007.nfo

3.38 KB

 Pathfinder-AC3-5,1-DVDRip[Eng]2007.avi

1.07 GB

 Pathfinder-AC3-5,1-DVDRip[Eng]2007-Front.jpg

3.08 MB

 Pathfinder-AC3-5,1-DVDRip[Eng]2007-CD1.jpg

810.32 KB
 

Announce URL: http://inferno.demonoid.com:3408/announce

Torrent description

http://www.imdb.com/title/tt0446013/

User Rating:5.2/10 - 13,935 votes

Action/Adventure/Drama/History/Thriller/War

Director:Marcus Nispel

Cast:Karl Urban/Moon Bloodgood/Russell Means/Clancy Brown and others.

Plot:
A Viking boy is left behind after his clan battles a Native American tribe. Raised within the tribe,
he ultimately becomes their savior in a fight against the Norsemen....

Info:

Cover included.

Video
Format : MPEG-4 Visual
Format settings, BVOP : No
Format settings, QPel : No
Format settings, GMC : No warppoints
Format settings, Matrix : Default
Codec ID : XVID
Codec ID/Hint : XviD
Duration : 1h 42mn
Bit rate : 1 041 Kbps
Width : 720 pixels
Height : 304 pixels
Display aspect ratio : 2.35
Frame rate : 25.000 fps
Resolution : 24 bits
Colorimetry : 4:2:0
Scan type : Progressive
Bits/(Pixel*Frame) : 0.190
Stream size : 765 MiB (70%)
Writing library : XviD 50

Audio
Format : AC-3
Format/Info : Audio Coding 3
Codec ID : 2000
Duration : 1h 42mn
Bit rate mode : Constant
Bit rate : 448 Kbps
Channel(s) : 6 channels
Channel positions : Front: L C R, Surround: L R, LFE
Sampling rate : 48.0 KHz
Stream size : 329 MiB (30%)
Alignment : Split accross interleaves
Interleave, duration : 80 ms (2.00 video frames)
Interleave, preload duration : 500 ms
Language : English

Writing application : VirtualDubMod 1.5.4.1 (build 2178/release)
Writing library : VirtualDubMod build 2178/release

Enjoy....

related torrents

Torrent name

health leech seeds Size
 


comments (0)

Main Menu