Action

Fire from Below German 2009 DVDRip XviD [mnvv2 info]

  • Download 5x Faster
  • Download torrent
  • Direct Download
  • Rate this torrent +  |  -
Fire from Below German 2009 DVDRip XviD [mnvv2 info]

Free and Direct Download with Usenet.nl 300GB+ free


Torrent info

Name:Fire from Below German 2009 DVDRip XviD [mnvv2 info]

Total Size: 698.59 MB

Magnet: Magnet Link

Seeds: 0

Leechers: 0

Stream: Watch Online @ Movie4u

Last Updated: 2010-09-29 16:42:15 (Update Now)

Torrent added: 2009-08-21 15:53:18





Torrent Files List


w120.jpg (Size: 698.59 MB) (Files: 5)

 w120.jpg

10.42 KB

 m135.jpg

3.13 KB

 info.txt

2.92 KB

 Fire.from.Below.German.2009.DVDRip.XviD.avi

698.54 MB

 f-68284-1.jpg

36.97 KB
 

Announce URL: http://announce.mnvv2.info/announce.php

Torrent description

Fire.from.Below.German.2009.DVDRip.XviD

Fire from Below
DVD - Action/Abenteuer - USA 2009
FSK: Freigegeben ab 16 beantragt - 91 Min. - Anbieter: Sunfilm - Leihstart: 03.04.2009
Store_Date_DE_____: 03.04.2009
Release_Date______: 02.04.2009
Production_Year___: 2009
Runtime___________: 86 minutes
Genre_____________: Adventure
Video-Source______: PAL-DVD
Format____________: XviD
Resolution________: 640 x 352
Video_Bitrate_____: avg. 970 kbps
Audio_Bitrate_____: 48000Hz 150 kb/s tot
Subs______________: NO
Size______________: 37 x 20mb

Weil gewissenlose Vorständler bei Drake Industries kurzfristigen Profit über Verantwortung stellen, bohrt ein Bergwerkerteam ahnungslos einen Vulkan an. Darauf dringen in einer benachbarten Kleinstadt giftige Gase aus der Erde, die sich bei Berührung mit Wasser explosiv entzünden. Es obliegt Dr. Jake Denning, eigentlich mit seiner Verlobten zurück in der Heimat, um sich häuslich niederzulassen, die Verantwortlichen davon zu überzeugen, dass sich eine Katastrophe globalen Ausmaßes anbahnt.

Format : AVI
Format/Info : Audio Video Interleave
Dateigre : 699 MiB
Duration : 1h 25min
Gesamte Bitrate : 1140 Kbps
Verwendetes Programm : VirtualDubMod 1.5.10.2 (build 2540/release)
verwendete Encoder-Bibliothek : VirtualDubMod build 2540/release

Video
Format : MPEG-4 Visual
Format profile : Streaming [email protected]
Format settings, BVOP : Ja
Format settings, QPel : Nein
Format settings, GMC : No warpoints
Format settings, Matrix : Default
Codec ID : XVID
Codec ID/Hint : XviD
Duration : 1h 25min
Bitrate : 977 Kbps
Breite : 640 Pixel
Höhe : 352 Pixel
Bildseitenverhältnis : 16/9
Bildwiederholungsrate : 25.000 FPS
Auflösung : 8 bits
Colorimetry : 4:2:0
Scan type : Progressive
Bits/(Pixel*Frame) : 0.173
Stream size : 599 MiB
verwendete Encoder-Bibliothek : XviD 1.1.2 (UTC 2006-11-01)

Audio
Format : MPEG Audio
Format version : Version 1
Format profile : Layer 3
Codec ID : 55
Codec ID/Hint : MP3
Duration : 1h 25min
Bitraten-Modus : Variable
Bitrate : 150 Kbps
Nominal bit rate : 145 Kbps
Kanäle : 2 Kanäle
Samplingrate : 48.0 KHz
Auflösung : 16 bits
Stream size : 91.8 MiB
verwendete Encoder-Bibliothek : LAME3.90.
Kodierungseinstellungen : ABR

related torrents

Torrent name

health leech seeds Size
 

comments (0)

Main Menu