Action

Fire Down Below DvDrip (1997)

  • Download 5x Faster
  • Download torrent
  • Direct Download
  • Rate this torrent +  |  -
Fire Down Below DvDrip (1997)

Anonymous and Free Direct Download 300GB+


Torrent info

Name:Fire Down Below DvDrip (1997)

Total Size: 699.61 MB

Magnet: Magnet Link

Seeds: 0

Leechers: 0

Stream: Watch Online @ Movie4u

Last Updated: 0000-00-00 00:00:00 (Update Now)

Torrent added: 2009-08-21 15:53:00



VPN For Torrents

Torrent Files List


Fire Down Below DvDrip (1997) (Size: 699.61 MB) (Files: 1)

 Fire Down Below DvDrip (1997)

699.61 MB
 

Announce URL:

Torrent description


General
Complete name : L:Movies 2MoviesFire Down Below DvDrip (1997)Fire Down Below DvDrip (1997)
Format : AVI
Format/Info : Audio Video Interleave
File size : 700 MiB
Duration : 1h 40mn
Overall bit rate : 975 Kbps
Writing application : VirtualDubMod 1.5.10.2 (build 2540/release)
Writing library : VirtualDubMod build 2540/release

Video
ID : 0
Format : MPEG-4 Visual
Format profile : [email protected]
Format settings, BVOP : Yes
Format settings, QPel : No
Format settings, GMC : No warppoints
Format settings, Matrix : Default (H.263)
Muxing mode : Packed bitstream
Codec ID : XVID
Codec ID/Hint : XviD
Duration : 1h 40mn
Bit rate : 850 Kbps
Width : 592 pixels
Height : 320 pixels
Display aspect ratio : 1.850
Frame rate : 25.000 fps
Resolution : 24 bits
Colorimetry : 4:2:0
Scan type : Progressive
Bits/(Pixel*Frame) : 0.180
Stream size : 610 MiB (87%)
Writing library : XviD 1.1.2 (UTC 2006-11-01)

Audio
ID : 1
Format : MPEG Audio
Format version : Version 1
Format profile : Layer 3
Codec ID : 55
Codec ID/Hint : MP3
Duration : 1h 40mn
Bit rate mode : Variable
Bit rate : 111 Kbps
Minimum bit rate : 32.0 Kbps
Channel(s) : 2 channels
Sampling rate : 48.0 KHz
Resolution : 16 bits
Stream size : 80.0 MiB (11%)
Alignment : Aligned on interleaves
Interleave, duration : 24 ms (0.60 video frame)
Interleave, preload duration : 165 ms
Writing library : LAME3.97b
Encoding settings : -m j -V 5 -q 3 -lowpass 16 --vbr-new -b 32

http://www.imdb.com/title/tt0119123/

related torrents

Torrent name

health leech seeds Size
 


comments (0)

Main Menu