Action

Fight Night 2008 DVDRIP XviD ZEKTORM

  • Download 5x Faster
  • Download torrent
  • Direct Download
  • Rate this torrent +  |  -
Fight Night 2008 DVDRIP XviD ZEKTORM

Free and Direct Download with Usenet.nl 300GB+ free


Torrent info

Name:Fight Night 2008 DVDRIP XviD ZEKTORM

Total Size: 705.16 MB

Magnet: Magnet Link

Seeds: 0

Leechers: 3

Stream: Watch Online @ Movie4u

Last Updated: 2016-08-28 09:28:50 (Update Now)

Torrent added: 2009-08-21 15:48:11





Torrent Files List


Subs (Size: 705.16 MB) (Files: 4)

 Subs

  Fight.Night.2008.DVDRIP.XviD-ZEKTORM.sub

4.05 MB

  Fight.Night.2008.DVDRIP.XviD-ZEKTORM.idx

48.91 KB

 READ.hlp

11.73 KB

 Fight.Night.2008.DVDRIP.XviD-ZEKTORM.avi

701.05 MB
 

tracker

leech seeds
 

Torrent description

Title : Rigged
Also Known As : Fight Night
Year : 2008
Genre : Action | Adventure | Crime | Drama
iMDB URL : http://www.imdb.com/title/tt0756707/
Awards : 2 wins

Complete name : Fight.Night.2008.DVDRIP.XviD-ZEKTORM.avi
Format : AVI
File size : 701 MiB
Duration : 1h 45mn
Overall bit rate : 930 Kbps
Subtitles : Spanish (Format: VobSub)
Source : DVD NTSC

Video
Format : MPEG-4 Visual
Format profile : Streaming [email protected]
Codec ID : DX50
Codec ID/Hint : DivX 5
Duration : 1h 45mn
Bit rate : 795 Kbps
Width : 720 pixels
Height : 400 pixels
Display aspect ratio : 16/9
Frame rate : 23.976 fps
Resolution : 24 bits
Colorimetry : 4:2:0
Scan type : Progressive
Bits/(Pixel*Frame) : 0.115
Stream size : 599 MiB (85%)
Writing library : XviD

Audio
Format : MPEG Audio
Format version : Version 1
Format profile : Layer 3
Codec ID : 55
Codec ID/Hint : MP3
Duration : 1h 45mn
Bit rate mode : Constant
Bit rate : 128 Kbps
Minimum bit rate : 128 Kbps
Channel(s) : 2 channels
Sampling rate : 48.0 KHz
Resolution : 16 bits
Stream size : 96.5 MiB (14%)
Writing library : LAME3.98r
Encoding settings : CBR

related torrents

Torrent name

health leech seeds Size

Fight Night 2008 Screener

0 4 708.31 MB 0
 

comments (0)

Main Menu