Action

Air Force One (1997) Widescreen MULTISUBS

  • Download 5x Faster
  • Download torrent
  • Direct Download
  • Rate this torrent +  |  -
Air Force One (1997) Widescreen MULTISUBS

Anonymous and Free Direct Download 300GB+


Torrent info

Name:Air Force One (1997) Widescreen MULTISUBS

Total Size: 712.06 MB

Magnet: Magnet Link

Seeds: 0

Leechers: 0

Stream: Watch Online @ Movie4u

Last Updated: 0000-00-00 00:00:00 (Update Now)

Torrent added: 2009-08-21 15:38:25



VPN For Torrents

Torrent Files List


Opional subtitles (Size: 8.29 MB) (Files: 13)

 Opional subtitles

  Svenska.rar

666.90 KB

  Suomiseksi.rar

701.43 KB

  Portugese.rar

713.53 KB

  Notes on subtitle files.txt

1.69 KB

  Norsk.rar

665.16 KB

  Italiano.rar

921.99 KB

  Hrvatski.rar

698.46 KB

  Francais.rar

670.26 KB

  Espanol.rar

955.10 KB

  English.rar

891.47 KB

  Deutsch.rar

873.88 KB

  Dansk.rar

721.29 KB

 Info about this release.txt

4.60 KB
 

Announce URL:

Torrent description

Air Force One (1997)

Optional subtitles in separate idx/sub files:
Danish, English, Finnish, German, French, Hrvatski, Italian, Norwegian, Portugese, Spanish, Swedish. (Sorry, Dutch and Polish friends, your language was not on the DVD.)

I was surprised to see that most rips of this all-time classic have vanished here at PirateBay, and could find no quality widescreen rip with multisubs. So I made one.

My new ripping procedure now produces decent quality for such a long film compressed into just 700 MiB. I enclose a sample for ye weak in faith.

Widescreen, DVDrip XviD 2-pass 720x288, great stereo AC3.
Burn tested, runs well in both my standalone DivX players.


Format/Info : Audio Video Interleave
File size : 696 MiB
Duration : 1h 59mn
Overal bit rate : 813 Kbps

Video
Format : MPEG-4 Visual
Format profile : Streaming [email protected]
Format settings, BVOP : Yes
Format settings, QPel : No
Format settings, GMC : No warppoints
Format settings, Matrix : Default
Muxing mode : Packet Bitstream
Codec ID : XVID
Codec ID/Hint : XviD
Duration : 1h 59mn
Bit rate : 676 Kbps
Width : 720 pixels
Height : 288 pixels
Display aspect ratio : 2.500
Frame rate : 25.000 fps
Resolution : 8 bits
Colorimetry : 4:2:0
Scan type : Progressive
Bits/(Pixel*Frame) : 0.130
Stream size : 578 MiB
Writing library : XviD 1.2.0.dev47 (UTC 2006-11-01)

Audio
Format : MPEG Audio
Format version : Version 1
Format profile : Layer 3
Codec ID : 55
Codec ID/Hint : MP3
Duration : 1h 59mn
Bit rate mode : Constant
Bit rate : 128 Kbps
Minimum bit rate : 128 Kbps
Channel(s) : 2 channels
Sampling rate : 48.0 KHz
Resolution : 16 bits
Stream size : 109 MiB
Writing library : LAME3.97
Encoding settings : CBR

Source: PAL retail 7.3 GiB (note that PAL/NTSC will give no problems for avi files)

Thanks to Kuthumi!

related torrents

Torrent name

health leech seeds Size
 


comments (0)

Main Menu