Action

Against the Dark(2009)DvdScr[MiNdSkiN] [

  • Download 5x Faster
  • Download torrent
  • Direct Download
  • Rate this torrent +  |  -
Against the Dark(2009)DvdScr[MiNdSkiN] [

Download FREE And Anonymously


Torrent info

Name:Against the Dark(2009)DvdScr[MiNdSkiN] [

Total Size: 697.19 MB

Magnet: Magnet Link

Seeds: 0

Leechers: 0

Stream: Watch Full Movie @ Movie4u

Last Updated: 2010-09-09 12:24:28 (Update Now)

Torrent added: 2009-08-21 15:35:45



VPN For Torrents

Torrent Files List


poster.jpg (Size: 697.19 MB) (Files: 51)

 poster.jpg

66.98 KB

 atd-mindskin.rar

14.31 MB

 atd-mindskin.r47

10.47 MB

 atd-mindskin.r46

14.31 MB

 atd-mindskin.r45

14.31 MB

 atd-mindskin.r44

14.31 MB

 atd-mindskin.r43

14.31 MB

 atd-mindskin.r42

14.31 MB

 atd-mindskin.r41

14.31 MB

 atd-mindskin.r40

14.31 MB

 atd-mindskin.r38

14.31 MB

 atd-mindskin.r39

14.31 MB

 atd-mindskin.r37

14.31 MB

 atd-mindskin.r35

14.31 MB

 atd-mindskin.r36

14.31 MB

 atd-mindskin.r34

14.31 MB

 atd-mindskin.r32

14.31 MB

 atd-mindskin.r33

14.31 MB

 atd-mindskin.r30

14.31 MB

 atd-mindskin.r31

14.31 MB

 atd-mindskin.r29

14.31 MB

 atd-mindskin.r27

14.31 MB

 atd-mindskin.r28

14.31 MB

 atd-mindskin.r25

14.31 MB

 atd-mindskin.r26

14.31 MB

 atd-mindskin.r24

14.31 MB

 atd-mindskin.r22

14.31 MB

 atd-mindskin.r23

14.31 MB

 atd-mindskin.r21

14.31 MB

 atd-mindskin.r19

14.31 MB

 atd-mindskin.r20

14.31 MB

 atd-mindskin.r18

14.31 MB

 atd-mindskin.r16

14.31 MB

 atd-mindskin.r17

14.31 MB

 atd-mindskin.r15

14.31 MB

 atd-mindskin.r14

14.31 MB

 atd-mindskin.r12

14.31 MB

 atd-mindskin.r13

14.31 MB

 atd-mindskin.r10

14.31 MB

 atd-mindskin.r11

14.31 MB

 atd-mindskin.r08

14.31 MB

 atd-mindskin.r09

14.31 MB

 atd-mindskin.r06

14.31 MB

 atd-mindskin.r07

14.31 MB

 atd-mindskin.r04

14.31 MB

 atd-mindskin.r05

14.31 MB

 atd-mindskin.r02

14.31 MB

 atd-mindskin.r03

14.31 MB

 atd-mindskin.r00

14.31 MB

 atd-mindskin.r01

14.31 MB

 atd-mindskin.nfo

7.81 KB
4div c݇бs-ar2 h1P1ȉ11

Announce URL: http://xblades-dragon-house.com/announce.php?passkey=7a280a45bdd0c2da99ca8eb7a2008b19

Torrent description

ÑÑÑÑÑÑÑÑÑÑÑÑÑÑÑÑÑÑÑÑÑÑÑÑÑÑÑÑÑÑÑÑÑÑÑÑÑÑÑÑÑÑÑÑÑÑÑÑÑÑÑÑÑÑÑÑÑÑÑÑÑÑÑÑÑÑÑÑÑÑÑÑÑÑÑÑÑÑ
ÆÑÆAA. .AAÆÑÆ
ÆÑÆA AÆÑÆ
ÆÑÆ ÆÑÆ
ÆÑ .uuu ÑÆ
Æ [email protected]#"%c .uuzm**"""""*%mu.. z*"` [email protected]#N Æ
@!!!R. #c .z*" ^*c z dT!!!!!>
'!!!!!!N "i u*" #s :" @?!!!!!!!R
t!!!!!!!#u "i [email protected] ^$ :R!!!!!!!!!X
'!!!!!!!!!#c "i:# ?> R!!!!!!!!!!X
'!!!!!!!!!!!N @ 4W!!!!!!!!!!!>
'!!!!!!!!!!!!Ru" ?!!!!!!!!!!X
'X!!!!!!!!!!!9~ . . 'X!!!!!!!!!6
R!!!!!!!!!!tF z$#` h &!!UR!!!!!F
?!!!!!$X!!!$ [email protected] X $WTR!!!!!X
M!!!!!i#U!E . @F ! FdR!!!!!!f
'X!!!!!#c'[email protected]#"*$N. :$ F'[email protected]
9!!!!!!!?NM ^*c dF ' @!!!!!!!X>
R!!!!!!!!& "e d K<!!!!!!!XF
'X!!!!!!!M> ^N f < E!!!!!!X"
t!!!!!!!# ^N :" .e$"^ Fn!!!!!XP
#X!!!!!!ML *c z" .e$$$$$ M'!!!!W*
"*[email protected] ^%u. ""**#).zd$$#$$$$$$$ <\*@**"
'N [email protected]$$$)$$#$$k4$$$$$$$$$E :$
?> "$$$$$$":$$$W$$$ "$$$$$$$$ %
:" ? ^#*" S "$$$$$ ?
F L d$L X
& t$i @$$$ f
* $$$$$$$$$$\& @
'*. W'$$$$$$$$FM h u#
Æ ^*muz* % $$$$$$": `" Æ
ÆÑ # ^**" d ÑÆ
ÆÑÆ "***" ÆÑÆ
ÆÑÆA AÆÑÆ
ÆÑÆAA. .AAÆÑÆ
ÑÑÑÑÑÑÑÑÑÑÑÑÑÑÑÑÑÑÑÑÑÑÑÑÑÑÑÑÑÑÑÑÑÑÑÑÑÑÑÑÑÑÑÑÑÑÑÑÑÑÑÑÑÑÑÑÑÑÑÑÑÑÑÑÑÑÑÑÑÑÑÑÑÑÑÑÑÑ
±±±±±±±± iMDb Movie Info: ±±±±±±±±
ÑÑÑÑÑÑÑÑÑÑÑÑÑÑÑÑÑÑÑÑÑÑÑÑÑÑÑÑÑÑÑÑÑÑÑÑÑÑÑÑÑÑÑÑÑÑÑÑÑÑÑÑÑÑÑÑÑÑÑÑÑÑÑÑÑÑÑÑÑÑÑÑÑÑÑÑÑÑ
ÆÑÆAA. .AAÆÑÆ
ÆÑÆA AÆÑÆ
ÆÑÆ ÆÑÆ
ÆÑÆ ÆÑÆ
ÆÑÆ |-------- Title | Against the Dark ÆÑÆ
ÆÑÆ ÆÑÆ
ÆÑÆ |--------- Year | 2009 ÆÑÆ
ÆÑÆ ÆÑÆ
ÆÑÆ |---- iMDb Rate | 0/10 ÆÑÆ
ÆÑÆ ÆÑÆ
ÆÑÆ |----- iMDb URL | http://akas.imdb.com/title/tt1194271 ÆÑÆ
ÆÑÆ ÆÑÆ
ÆÑÆ |-------- Genre | Action / Horror / Thriller ÆÑÆ
ÆÑÆ ÆÑÆ
ÆÑÆ |--- Director/s | Richard Crudo ÆÑÆ
ÆÑÆ ÆÑÆ
ÆÑÆ |--------- Cast | Steven Seagal, Tanoai Reed, Jenna Harrison ÆÑÆ
ÆÑÆ ÆÑÆ
ÆÑÆ |--------- Plot | ÆÑÆ
ÆÑÆ ÆÑÆ
ÆÑÆ ÆÑÆ
ÆÑÆA AÆÑÆ
ÆÑÆAA. .AAÆÑÆ
ÑÑÑÑÑÑÑÑÑÑÑÑÑÑÑÑÑÑÑÑÑÑÑÑÑÑÑÑÑÑÑÑÑÑÑÑÑÑÑÑÑÑÑÑÑÑÑÑÑÑÑÑÑÑÑÑÑÑÑÑÑÑÑÑÑÑÑÑÑÑÑÑÑÑÑÑÑÑ
±±±±±±±± File Info: ±±±±±±±±
ÑÑÑÑÑÑÑÑÑÑÑÑÑÑÑÑÑÑÑÑÑÑÑÑÑÑÑÑÑÑÑÑÑÑÑÑÑÑÑÑÑÑÑÑÑÑÑÑÑÑÑÑÑÑÑÑÑÑÑÑÑÑÑÑÑÑÑÑÑÑÑÑÑÑÑÑÑÑ



Format : AVI
Format/Info : Audio Video Interleave
File size : 690 MiB
Duration : 1h 33mn
Overall bit rate : 1 028 Kbps

Video
Format : MPEG-4 Visual
Format settings, BVOP : Yes
Format settings, QPel : No
Format settings, GMC : No warppoints
Format settings, Matrix : Default
Codec ID : DX50
Codec ID/Hint : DivX 5
Duration : 1h 33mn
Bit rate : 888 Kbps
Width : 560 pixels
Height : 368 pixels
Display aspect ratio : 1.522
Frame rate : 29.969 fps
Resolution : 24 bits
Colorimetry : 4:2:0
Scan type : Progressive
Bits/(Pixel*Frame) : 0.144
Stream size : 596 MiB (86%)
Writing library : DivX 6.0.0 (UTC 2005-06-15)

Audio
Format : MPEG Audio
Format version : Version 1
Format profile : Layer 3
Codec ID : 55
Codec ID/Hint : MP3
Duration : 1h 33mn
Bit rate mode : Constant
Bit rate : 128 Kbps
Channel(s) : 2 channels
Sampling rate : 48.0 KHz
Resolution : 16 bits
Stream size : 86.0 MiB (12%)
Alignment : Split accross interleaves
Interleave, duration : 33 ms (1.00 video frame)
Interleave, preload duration : 500 ms



ÑÑÑÑÑÑÑÑÑÑÑÑÑÑÑÑÑÑÑÑÑÑÑÑÑÑÑÑÑÑÑÑÑÑÑÑÑÑÑÑÑÑÑÑÑÑÑÑÑÑÑÑÑÑÑÑÑÑÑÑÑÑÑÑÑÑÑÑÑÑÑÑÑÑÑÑÑÑ
±±±±±±±± Tracker Info: ±±±±±±±±
ÑÑÑÑÑÑÑÑÑÑÑÑÑÑÑÑÑÑÑÑÑÑÑÑÑÑÑÑÑÑÑÑÑÑÑÑÑÑÑÑÑÑÑÑÑÑÑÑÑÑÑÑÑÑÑÑÑÑÑÑÑÑÑÑÑÑÑÑÑÑÑÑÑÑÑÑÑÑ
ÆÑÆAA. .AAÆÑÆ
ÆÑÆA AÆÑÆ
ÆÑÆ http://www.toxictorrents.com/announce.php ÆÑÆ
ÆÑÆA AÆÑÆ
ÆÑÆAA. .AAÆÑÆ
ÑÑÑÑÑÑÑÑÑÑÑÑÑÑÑÑÑÑÑÑÑÑÑÑÑÑÑÑÑÑÑÑÑÑÑÑÑÑÑÑÑÑÑÑÑÑÑÑÑÑÑÑÑÑÑÑÑÑÑÑÑÑÑÑÑÑÑÑÑÑÑÑÑÑÑÑÑÑ
±±±±±±±± ±±±±±±±±
±±±±±±±± PLEASE SEED BACK AT LEAST WHAT YOU DOWNLOAD!!! ±±±±±±±±
±±±±±±±± 08/08 ±±±±±±±±
ÑÑÑÑÑÑÑÑÑÑÑÑÑÑÑÑÑÑÑÑÑÑÑÑÑÑÑÑÑÑÑÑÑÑÑÑÑÑÑÑÑÑÑÑÑÑÑÑÑÑÑÑÑÑÑÑÑÑÑÑÑÑÑÑÑÑÑÑÑÑÑÑÑÑÑÑÑÑ

related torrents

Torrent name

health leech seeds Size
 


comments (0)

Main Menu

 

script data-cfasync="false" src="//d2ghscazvn398x.cloudfront.net/?cshgd=690275">