Action

A V P[REQUIEM] A H 264 RIP BY KIDZCORNER&J T R

  • Download 5x Faster
  • Download torrent
  • Direct Download
  • Rate this torrent +  |  -
A V P[REQUIEM] A H 264 RIP BY KIDZCORNER&J T R

Free and Direct Download with Usenet 300GB+ free


Torrent info

Name:A V P[REQUIEM] A H 264 RIP BY KIDZCORNER&J T R

Total Size: 787.53 MB

Magnet: Magnet Link

Seeds: 0

Leechers: 0

Stream: Watch Online @ Movie4u

Last Updated: 2010-08-02 01:00:37 (Update Now)

Torrent added: 2009-08-21 15:32:25




Torrent Files List


Tracked by moviesb4time.biz.txt (Size: 787.53 MB) (Files: 5)

 Tracked by moviesb4time.biz.txt

1.35 KB

 Torrent downloaded from Demonoid.com-3.txt

0.05 KB

 avp requiem.mp4

787.47 MB

 849012_DV_L_F.JPG

29.37 KB

 849012_DV_L_B.JPG

31.12 KB
 

Announce URL: http://inferno.demonoid.com:3407/announce

Torrent description

Packed with adrenaline-pumping action, heart-stopping suspense, and seven additional minutes of blood-soaked action too shocking for cinemas, this version of AVP2 escalates the war between sci-fi's scariest movie icons!

Ater a horrifying PredAlien crash-lands near a small Colorado town, killing everyone it encounters and producing countless Alien offspring, a lone Predator arrives to 'clean up' the infestation. Soon it's an all-out battle to the death with no rules, no mercy - and hundreds of innocent people caught in the crossfire. As the creature carnage continues, a handful of human survivors attempt a daring escape, but the U.S. government may be hatching a deadly plan of its own...

General
Complete name : C:\Users\joker\Documents\A.V.P[REQUIEM]- A H.264 RIP BY KIDZCORNER&J.T.R\avp requiem.mp4
Format : MPEG-4
Format profile : Base Media / Version 2
Codec ID : mp42
File size : 787 MiB
Duration : 1h 36mn
Overall bit rate : 1 136 Kbps
Encoded date : UTC 2009-02-15 06:05:37
Tagged date : UTC 2009-02-15 08:15:04
Writing application : HandBrake 0.9.3 2008112300

Video
Format : AVC
Format/Info : Advanced Video Codec
Format profile : [email protected]
Format settings, CABAC : Yes
Format settings, ReFrames : 1 frame
Codec ID : avc1
Codec ID/Info : Advanced Video Coding
Duration : 1h 36mn
Bit rate mode : Variable
Bit rate : 974 Kbps
Nominal bit rate : 990 Kbps
Width : 600 pixels
Height : 428 pixels
Display aspect ratio : 1.994
Frame rate mode : Variable
Frame rate : 25.000 fps
Minimum frame rate : 12.500 fps
Maximum frame rate : 25.000 fps
Resolution : 24 bits
Colorimetry : 4:2:0
Scan type : Progressive
Bits/(Pixel*Frame) : 0.152
Stream size : 675 MiB (86%)
Writing library : x264 core 65
Encoding settings : cabac=1 / ref=1 / deblock=1:0:0 / analyse=0x1:0x111 / me=umh / subme=6 / psy_rd=1.0:0.0 / mixed_ref=0 / me_range=16 / chroma_me=1 / trellis=0 / 8x8dct=0 / cqm=0 / deadzone=21,11 / chroma_qp_offset=-2 / threads=3 / nr=0 / decimate=1 / mbaff=0 / bframes=0 / keyint=250 / keyint_min=25 / scenecut=40(pre) / rc=abr / bitrate=990 / ratetol=1.0 / qcomp=0.60 / qpmin=10 / qpmax=51 / qpstep=4 / ip_ratio=1.40 / aq=1:1.00
Encoded date : UTC 2009-02-15 06:05:37
Tagged date : UTC 2009-02-15 08:15:04

Audio
Format : AAC
Format/Info : Advanced Audio Codec
Format version : Version 4
Format profile : LC
Format settings, SBR : No
Codec ID : 40
Duration : 1h 36mn
Bit rate mode : Variable
Bit rate : 160 Kbps
Maximum bit rate : 230 Kbps
Channel(s) : 2 channels
Channel positions : L R
Sampling rate : 48.0 KHz
Resolution : 16 bits
Stream size : 111 MiB (14%)
Language : English
Encoded date : UTC 2009-02-15 06:05:37
Tagged date : UTC 2009-02-15 08:15:01

related torrents

Torrent name

health leech seeds Size
 

comments (0)

Main Menu