Action

A V P 2[REQUIEM]@TF KC RELEASE BY THE STIG

  • Download 5x Faster
  • Download torrent
  • Direct Download
  • Rate this torrent +  |  -
A V P 2[REQUIEM]@TF KC RELEASE BY THE STIG

Free and Direct Download with Usenet 300GB+ free


Torrent info

Name:A V P 2[REQUIEM]@TF KC RELEASE BY THE STIG

Total Size: 901.67 MB

Magnet: Magnet Link

Seeds: 0

Leechers: 0

Stream: Watch Online @ Movie4u

Last Updated: 2011-03-21 04:40:50 (Update Now)

Torrent added: 2009-08-21 15:32:19




Torrent Files List


Torrent downloaded from Demonoid.com.txt (Size: 901.67 MB) (Files: 6)

 Torrent downloaded from Demonoid.com.txt

0.05 KB

 TFKC.nfo

4.05 KB

 AVP-Cover.jpg

154.87 KB

 avpr_aliens_vs_predator_requiem_dvd-cd.jpg

478.00 KB

 avpr_aliens_vs_predator_requiem-dvd-front.jpg

1.60 MB

 avp2r.mp4

899.45 MB
 

Announce URL: http://inferno.demonoid.com:3416/announce

Torrent description

A little town in the hills of Colorado will become the battleground between two of the deadliest extra-terrestrial lifeforms - the Alien and the Predator. When a Predator scout ship crash-lands in the hills outside the town, Alien facehuggers are released in the crash, and an even more evil creature - a hybrid Alien/Predator - is also released. A man & his son hunting in the forests near the crash site soon become the first victims of the facehuggers, and when a Predator receives data about the crash on his home planet, he comes to Earth. One at a time, the inhabitants of the town become targets of the Aliens and the Predator, including the local sheriff, a young female soldier recently returned from Iraq, and several teens. Though the National Guard is called in, they are unable to stop the deadly creatures, and a plan is set in motion to destroy the town with a nuclear device... Written by Derek O'Cain

In Gunnison County, a spacecraft crashes in the woods bringing a powerful hybrid Alien hosted inside the pilot Predator. The local Buddy Benson and his son Sam are hunting in the forest and witness the crash, but they are chased and killed by the Alien. Meanwhile another Predator lands on the spot seeking out the Alien and destroying the evidences of their presence on Earth. The dwellers of the town find themselves in the middle of a battlefield between the two deadly extraterrestrial creatures, and the small group of survivors splits the leadership between Sheriff Eddie Morales and the bad-boy Dallas Howard that have different opinions about the best means to escape from the beings.

Format : MPEG-4
Format profile : Base Media / Version 2
Codec ID : mp42
File size : 899 MiB
Duration : 1h 36mn
Overall bit rate : 1 297 Kbps
Encoded date : UTC 2009-07-10 02:51:44
Tagged date : UTC 2009-07-10 07:05:58
Writing application : HandBrake 0.9.3 2008112300

Video
ID : 1
Format : AVC
Format/Info : Advanced Video Codec
Format profile : [email protected]
Format settings, CABAC : Yes
Format settings, ReFrames : 3 frames
Codec ID : avc1
Codec ID/Info : Advanced Video Coding
Duration : 1h 36mn
Bit rate mode : Variable
Bit rate : 1 134 Kbps
Width : 718 pixels
Height : 428 pixels
Display aspect ratio : 2.35
Frame rate mode : Variable
Frame rate : 25.000 fps
Minimum frame rate : 12.500 fps
Maximum frame rate : 25.000 fps
Resolution : 24 bits
Colorimetry : 4:2:0
Scan type : Progressive
Bits/(Pixel*Frame) : 0.148
Stream size : 786 MiB (87%)
Writing library : x264 core 65



Audio
ID : 2
Format : AAC
Format/Info : Advanced Audio Codec
Format version : Version 4
Format profile : LC
Format settings, SBR : No
Codec ID : 40
Duration : 1h 36mn
Bit rate mode : Variable
Bit rate : 160 Kbps
Maximum bit rate : 230 Kbps
Channel(s) : 2 channels
Channel positions : L R
Sampling rate : 48.0 KHz
Resolution : 16 bits
Stream size : 111 MiB (12%)
Language : English

related torrents

Torrent name

health leech seeds Size
 

comments (0)

Main Menu