Action

A Beautiful Mind DVDRip 2001 [H 264 MP4 5 1 AAC] ~ Mindbreaker

  • Download 5x Faster
  • Download torrent
  • Direct Download
  • Rate this torrent +  |  -
A Beautiful Mind DVDRip 2001 [H 264 MP4 5 1 AAC] ~ Mindbreaker

Anonymous and free Direct Download 300GB+


Torrent info

Name:A Beautiful Mind DVDRip 2001 [H 264 MP4 5 1 AAC] ~ Mindbreaker

Total Size: 1.96 GB

Magnet: Magnet Link

Seeds: 3

Leechers: 6

Stream: Watch Online @ Movie4u

Last Updated: 0000-00-00 00:00:00 (Update Now)

Torrent added: 2009-08-21 15:26:53



SpyOFF VPN

Torrent Files List


Subtitles (Size: 1.96 GB) (Files: 8)

 Subtitles

  A Beautiful Mind DVDRip 2001 [H.264-MP4- 5.1 AAC] ~ Mindbreaker - Dutch.srt

150.53 KB

 Screenshots

  A Beautiful Mind 003.png

758.71 KB

  A Beautiful Mind 002.png

804.54 KB

  A Beautiful Mind 001.png

584.28 KB

 Covers

  A Beautiful mind - Front.jpg

1.27 MB

  A Beautiful mind - CD.jpg

105.90 KB

 A Beautiful Mind DVDRip 2001 [H.264-MP4- 5.1 AAC] ~ Mindbreaker.nfo

1.59 KB

 A Beautiful Mind DVDRip 2001 [H.264-MP4- 5.1 AAC] ~ Mindbreaker.mp4

1.96 GB
 

Announce URL: http://genesis.1337x.org:1337/announce

Torrent description

A Beautiful Mind DVDRip 2001 [H 264 MP4  5 1 AAC] ~ Mindbreaker preview 0

imdb : http://www.imdb.com/title/tt0268978/
Tagline: The Only Thing Greater Than the Power of the Mind is the Courage of the Heart
Plot: After a brilliant but asocial mathematician accepts secret work in cryptography, his life takes a turn to the nightmarish.
Total Size : 1.96 GB

General
Complete name : A Beautiful Mind 2001 DVDRip [H.264-MP4-5.1 AAC] ~ Mindbreaker.mp4
Format : H.264/5.1 AAC/MP4 - Anamorphic
Source : DVD (retail)
File size : 1.96 GiB
Duration : 2h 9mn
Overall bit rate : 2 159 Kbps

Video
ID : 1
Format : AVC
Format/Info : Advanced Video Codec
Format profile : [email protected]
Duration : 2h 9mn
Bit rate : 2 000 Kbps
Width : 1 018 pixels
Height : 572 pixels
Display aspect ratio : 16/9
Frame rate : 25.000 fps
Bits/(Pixel*Frame) : 0.137
Stream size : 1.81 GiB (93%)
Writing library : x264 core 67 r1145 d2e1e1c

Audio
ID : 2
Format : AAC
Format/Info : Advanced Audio Codec
Format profile : LC
Duration : 2h 9mn
Bit rate : 156 Kbps
Channel(s) : 6 channels
Sampling rate : 48.0 KHz
Stream size : 146 MiB (7%)
Language : English

Subtitle
Format : SubRip
Language : Dutch
Source : DVD
Comment : UniCode

A Beautiful Mind DVDRip 2001 [H 264 MP4  5 1 AAC] ~ Mindbreaker preview 1
A Beautiful Mind DVDRip 2001 [H 264 MP4  5 1 AAC] ~ Mindbreaker preview 2
A Beautiful Mind DVDRip 2001 [H 264 MP4  5 1 AAC] ~ Mindbreaker preview 3

http://genesis.1337x.org:1337/announce
http://open.tracker.thepiratebay.org/announce

A Beautiful Mind DVDRip 2001 [H 264 MP4  5 1 AAC] ~ Mindbreaker preview 4

related torrents

Torrent name

health leech seeds Size
 


comments (0)

Main Menu