Action

310 to Yuma 2007 BluRay 1080p DTS x264 dxva(AceHD)

  • Download 5x Faster
  • Download torrent
  • Direct Download
  • Rate this torrent +  |  -
310 to Yuma 2007 BluRay 1080p DTS x264 dxva(AceHD)

Anonymous and Free Direct Download 300GB+


Torrent info

Name:310 to Yuma 2007 BluRay 1080p DTS x264 dxva(AceHD)

Total Size: 11.80 GB

Magnet: Magnet Link

Seeds: 0

Leechers: 0

Stream: Watch Online @ Movie4u

Last Updated: 2016-08-28 20:36:30 (Update Now)

Torrent added: 2009-08-21 15:06:28



VPN For Torrents

Torrent Files List


Sample (Size: 11.80 GB) (Files: 9)

 Sample

  310.to.Yuma.2007.BluRay.1080p.DTS.x264.dxva.sample.mkv

82.28 MB

 Pictures

  evans-encode.png

1.38 MB

  evans-source.png

1.47 MB

  wade-encode.png

1.63 MB

  wade-source.png

1.78 MB

  mcelroy-encode.png

1.90 MB

  mcelroy-source.png

2.19 MB

 Movie

  310.to.Yuma.2007.BluRay.1080p.DTS.x264.dxva.nfo

0.48 KB

  310.to.Yuma.2007.BluRay.1080p.DTS.x264.dxva.mkv

11.71 GB
 

tracker

leech seeds
 

Torrent description

General
Complete name : 310.to.Yuma.2007.BluRay.1080p.DTS.x264.dxva.mkv
Format : Matroska
File size : 11.7 GiB
Duration : 2h 2mn
Overall bit rate : 13.7 Mbps
Encoded date : UTC 2009-07-01 21:45:28
Writing application : mkvmerge v2.9.5 ('Tu es le seul' built on Jun 7 2009 11:07:07
Writing library : libebml v0.7.7 + libmatroska v0.8.1

Video
ID : 1
Format : AVC
Format/Info : Advanced Video Codec
Format profile : High@L4.1
Format settings, CABAC : Yes
Format settings, ReFrames : 4 frames
Muxing mode : Container profile=Unknown@4.1
Codec ID : V_MPEG4/ISO/AVC
Duration : 2h 2mn
Bit rate : 11.9 Mbps
Width : 1 920 pixels
Height : 800 pixels
Display aspect ratio : 2.400
Frame rate : 23.976 fps
Resolution : 24 bits
Colorimetry : 4:2:0
Scan type : Progressive
Bits/(Pixel*Frame) : 0.323
Stream size : 10.2 GiB (87%)
Title : x264 - single CRF pass
Language : English

Audio
ID : 2
Format : DTS
Format/Info : Digital Theater Systems
Codec ID : A_DTS
Duration : 2h 2mn
Bit rate mode : Constant
Bit rate : 1 510 Kbps
Channel(s) : 6 channels
Channel positions : Front: L C R, Surround: L R, LFE
Sampling rate : 48.0 KHz
Resolution : 24 bits
Stream size : 1.29 GiB (11%)
Title : DTS - 1536 kbit/sec
Language : English

Text
ID : 3
Format : UTF-8
Codec ID : S_TEXT/UTF8
Codec ID/Info : UTF-8 Plain Text
Language : English

related torrents

Torrent name

health leech seeds Size
 


comments (0)

Main Menu