Action

16 James Bond Licence To Kill1989DVDripEngAC35 1 Atlas47

  • Download 5x Faster
  • Download torrent
  • Direct Download
  • Rate this torrent +  |  -
16 James Bond Licence To Kill1989DVDripEngAC35 1 Atlas47

Anonymous and Free Direct Download 300GB+


Torrent info

Name:16 James Bond Licence To Kill1989DVDripEngAC35 1 Atlas47

Total Size: 1.37 GB

Magnet: Magnet Link

Seeds: 0

Leechers: 0

Stream: Watch Online @ Movie4u

Last Updated: 2013-02-03 15:15:14 (Update Now)

Torrent added: 2009-08-21 14:49:42



VPN For Torrents

Torrent Files List


Licence To Kill.sub (Size: 1.37 GB) (Files: 5)

 Licence To Kill.sub

3.95 MB

 Licence To Kill.nfo

10.14 KB

 Licence To Kill.idx

41.15 KB

 Licence To Kill.avi

1.37 GB

 Covers

  James Bond - Licence To Kill.jpg

1.50 MB
 

Announce URL:

Torrent description


±±±±±±±±±±±±±±±±±±±±±±±±±±±±±±>>www.tornster.com<<±±±±±±±±±±±±±±±±±±±±±±±±±±±±±±
± ±
± INFO: ±
± ±
± General ±
± Complete name : Licence To Kill ±
± Genre : Action / Adventure / Thriller ±
± Format : AVI ±
± Format/Info : Audio Video Interleave ±
± File size : 1.37 GiB ±
± Duration : 2h 07mn ±
± Overall bit rate : 1 537 Kbps ±
± Writing application : VirtualDubMod 1.5.4.1 (build 2178/release)±
± Writing library : VirtualDubMod build 2178/release ±
± ±
± Video ±
± Format : MPEG-4 Visual ±
± Format settings, BVOP : Yes ±
± Format settings, QPel : No ±
± Format settings, GMC : No warppoints ±
± Format settings, Matrix : Default ±
± Codec ID : DX50 ±
± Codec ID/Hint : DivX 5 ±
± Duration : 2h 07mn ±
± Bit rate : 1 082 Kbps ±
± Width : 608 pixels ±
± Height : 256 pixels ±
± Display aspect ratio : 2.35 ±
± Frame rate : 25.000 fps ±
± Resolution : 24 bits ±
± Colorimetry : 4:2:0 ±
± Scan type : Progressive ±
± Bits/(Pixel*Frame) : 0.278 ±
± Stream size : 986 MiB (70%) ±
± Writing library : DivX 2816 ±
± ±
± Audio ±
± Format : AC-3 ±
± Format/Info : Audio Coding 3 ±
± Codec ID : 2000 ±
± Duration : 2h 07mn ±
± Bit rate mode : Constant ±
± Bit rate : 448 Kbps ±
± Channel(s) : 6 channels ±
± Channel positions : Front: L C R, Surround: L R, LFE ±
± Sampling rate : 48.0 KHz ±
± Stream size : 408 MiB (29%) ±
± Alignment : Split accross interleaves ±
± Interleave, duration : 80 ms (2.00 video frames) ±
± Interleave, preload duration : 500 ms ±
± Language : English ±
± Subtitles : English ±
± ±
± IMDb Rating : 6.5/10 ±
± IMDb URL : http://www.imdb.com/title/tt0097742/ ±
± ±
±°°°°°°°°°°°°°°°°°°°°°°°°°°°°°°°°°°°°°°°°°°°°°°°°°°°°°°°°°°°°°°°°°°°°°°°°°°°°°°±
± ±
± James Bond turns renegade to hunt down a master criminal in this pulse- ±
± pounding thrill-ride that's packed with awesome stunts, subtle humour and ±
± explosive confrontations. Timothy Dalton brings urgancy, charm and deadly ±
± determination to his portrayal of the superagent, who leaves the British ±
± Secret Service and begins a fierce vendetta after his friend Felix Leiter ±
± is brutally attacked by a drug lord Franz Sanches. ±
± ±
± ±
± ±
± ±
± ±
±°°°°°°°°°°°°°°°°°°°°°°°°°°°°°°°°°°°°°°°°°°°°°°°°°°°°°°°°°°°°°°°°°°°°°°°°°°°°°°±
± ±
± CAST: ±
± ±
± Timothy Dalton.............James Bond ±
± Carey Lowell...............Pam Bouvier ±
± Robert Davi................Franz Sanchez ±
± Talisa Soto................Lupe Lamora ±
± Anthony Zerbe..............Milton Krest ±
± Frank McRae................Sharkey ±
± David Hedison..............Felix Leiter ±
± ±
±°°°°°°°°°°°°°°°°°°°°°°°°°°°°°°°°°°°°°°°°°°°°°°°°°°°°°°°°°°°°°°°°°°°°°°°°°°°°°°±
± ±
± Please remember to seed ±
± ±
± Standalone Enabled ±
± ±
± www.tornster.com ±
± ±
±±±±±±±±±±±±±±±±±±±±±±±±±±±±±±±±±±±±±±±±±±±±±±±±±±±±±±±±±±±±±±±±±±±±±±±±±±±±±±±±

related torrents

Torrent name

health leech seeds Size
 


comments (0)

Main Menu