Action

15 James Bond The Living Daylights1987DVDripEngAC35 1 Atlas47

  • Download 5x Faster
  • Download torrent
  • Direct Download
  • Rate this torrent +  |  -
15 James Bond The Living Daylights1987DVDripEngAC35 1 Atlas47

Anonymous and Free Direct Download 300GB+


Torrent info

Name:15 James Bond The Living Daylights1987DVDripEngAC35 1 Atlas47

Total Size: 1.37 GB

Magnet: Magnet Link

Seeds: 0

Leechers: 0

Stream: Watch Online @ Movie4u

Last Updated: 2013-03-12 12:44:23 (Update Now)

Torrent added: 2009-08-21 14:49:20



VPN For Torrents

Torrent Files List


The Living Daylights.sub (Size: 1.37 GB) (Files: 5)

 The Living Daylights.sub

3.25 MB

 The Living Daylights.nfo

10.14 KB

 The Living Daylights.idx

34.55 KB

 The Living Daylights.avi

1.37 GB

 Covers

  James Bond - The Living Daylights.jpg

1.58 MB
 

Announce URL:

Torrent description


±±±±±±±±±±±±±±±±±±±±±±±±±±±±±±>>www.tornster.com<<±±±±±±±±±±±±±±±±±±±±±±±±±±±±±±
± ±
± INFO: ±
± ±
± General ±
± Complete name : The Living Daylights ±
± Genre : Action / Adventure / Thriller ±
± Format : AVI ±
± Format/Info : Audio Video Interleave ±
± File size : 1.37 GiB ±
± Duration : 2h 05mn ±
± Overall bit rate : 1 562 Kbps ±
± Writing application : VirtualDubMod 1.5.4.1 (build 2178/release)±
± Writing library : VirtualDubMod build 2178/release ±
± ±
± Video ±
± Format : MPEG-4 Visual ±
± Format settings, BVOP : Yes ±
± Format settings, QPel : No ±
± Format settings, GMC : No warppoints ±
± Format settings, Matrix : Default ±
± Codec ID : DX50 ±
± Codec ID/Hint : DivX 5 ±
± Duration : 2h 05mn ±
± Bit rate : 1 106 Kbps ±
± Width : 626 pixels ±
± Height : 272 pixels ±
± Display aspect ratio : 2.25 ±
± Frame rate : 25.000 fps ±
± Resolution : 24 bits ±
± Colorimetry : 4:2:0 ±
± Scan type : Progressive ±
± Bits/(Pixel*Frame) : 0.261 ±
± Stream size : 992 MiB (71%) ±
± Writing library : DivX 2816 ±
± ±
± Audio ±
± Format : AC-3 ±
± Format/Info : Audio Coding 3 ±
± Codec ID : 2000 ±
± Duration : 2h 05mn ±
± Bit rate mode : Constant ±
± Bit rate : 448 Kbps ±
± Channel(s) : 6 channels ±
± Channel positions : Front: L C R, Surround: L R, LFE ±
± Sampling rate : 48.0 KHz ±
± Stream size : 402 MiB (29%) ±
± Alignment : Split accross interleaves ±
± Interleave, duration : 80 ms (2.00 video frames) ±
± Interleave, preload duration : 500 ms ±
± Language : English ±
± Subtitles : English ±
± ±
± IMDb Rating : 6.7/10 ±
± IMDb URL : http://www.imdb.com/title/tt0093428/ ±
± ±
±°°°°°°°°°°°°°°°°°°°°°°°°°°°°°°°°°°°°°°°°°°°°°°°°°°°°°°°°°°°°°°°°°°°°°°°°°°°°°°±
± ±
± Armed with razor-sharp instincts and a license to kill, James Bond battles ±
± diabolical arms merchants bent on world domination in this thrilling, ±
± lightning-paced adventure. Timothy Dalton brings energy, humor, and almost ±
± ruthless cunning to his debut preformance as Agent 007. ±
± ±
± ±
± ±
± ±
± ±
± ±
± ±
±°°°°°°°°°°°°°°°°°°°°°°°°°°°°°°°°°°°°°°°°°°°°°°°°°°°°°°°°°°°°°°°°°°°°°°°°°°°°°°±
± ±
± CAST: ±
± ±
± Timothy Dalton.............James Bond ±
± Maryam d'Abo...............Kara Milovy ±
± Jeroen Krabbe..............General Georgi Koskov ±
± Joe Don Baker..............Brad Whitaker ±
± John Rhys-Davies...........General Leonid Pushkin ±
± Art Malik..................Kamran Shah ±
± Andreas Wisniewski.........Necros ±
± ±
±°°°°°°°°°°°°°°°°°°°°°°°°°°°°°°°°°°°°°°°°°°°°°°°°°°°°°°°°°°°°°°°°°°°°°°°°°°°°°°±
± ±
± Please remember to seed ±
± ±
± Standalone Enabled ±
± ±
± www.tornster.com ±
± ±
±±±±±±±±±±±±±±±±±±±±±±±±±±±±±±±±±±±±±±±±±±±±±±±±±±±±±±±±±±±±±±±±±±±±±±±±±±±±±±±±

related torrents

Torrent name

health leech seeds Size
 


comments (0)

Main Menu