Action

14 James Bond A View To A Kill1985DVDripEngAC35 1 Atlas47

  • Download 5x Faster
  • Download torrent
  • Direct Download
  • Rate this torrent +  |  -
14 James Bond A View To A Kill1985DVDripEngAC35 1 Atlas47

Anonymous and Free Direct Download 300GB+


Torrent info

Name:14 James Bond A View To A Kill1985DVDripEngAC35 1 Atlas47

Total Size: 1.37 GB

Magnet: Magnet Link

Seeds: 0

Leechers: 7

Stream: Watch Online @ Movie4u

Last Updated: 2012-05-06 20:12:41 (Update Now)

Torrent added: 2009-08-21 14:49:06



VPN For Torrents

Torrent Files List


A View To A Kill.sub (Size: 1.37 GB) (Files: 5)

 A View To A Kill.sub

3.61 MB

 A View To A Kill.nfo

10.14 KB

 A View To A Kill.idx

39.11 KB

 A View To A Kill.avi

1.37 GB

 Covers

  James Bond - A View To A Kill.jpg

1.54 MB
 

Announce URL: http://tracker.torrentbox.com:2710/announce

Torrent description


±±±±±±±±±±±±±±±±±±±±±±±±±±±±±±>>www.tornster.com<<±±±±±±±±±±±±±±±±±±±±±±±±±±±±±±
± ±
± INFO: ±
± ±
± General ±
± Complete name : A View To A Kill ±
± Genre : Action / Adventure / Thriller ±
± Format : AVI ±
± Format/Info : Audio Video Interleave ±
± File size : 1.37 GiB ±
± Duration : 2h 05mn ±
± Overall bit rate : 1 556 Kbps ±
± Writing application : VirtualDubMod 1.5.4.1 (build 2178/release)±
± Writing library : VirtualDubMod build 2178/release ±
± ±
± Video ±
± Format : MPEG-4 Visual ±
± Format settings, BVOP : Yes ±
± Format settings, QPel : No ±
± Format settings, GMC : No warppoints ±
± Format settings, Matrix : Default ±
± Codec ID : DX50 ±
± Codec ID/Hint : DivX 5 ±
± Duration : 2h 05mn ±
± Bit rate : 1 101 Kbps ±
± Width : 656 pixels ±
± Height : 288 pixels ±
± Display aspect ratio : 2.25 ±
± Frame rate : 25.000 fps ±
± Resolution : 24 bits ±
± Colorimetry : 4:2:0 ±
± Scan type : Progressive ±
± Bits/(Pixel*Frame) : 0.233 ±
± Stream size : 991 MiB (71%) ±
± Writing library : DivX 2816 ±
± ±
± Audio ±
± Format : AC-3 ±
± Format/Info : Audio Coding 3 ±
± Codec ID : 2000 ±
± Duration : 2h 05mn ±
± Bit rate mode : Constant ±
± Bit rate : 448 Kbps ±
± Channel(s) : 6 channels ±
± Channel positions : Front: L C R, Surround: L R, LFE ±
± Sampling rate : 48.0 KHz ±
± Stream size : 403 MiB (28%) ±
± Alignment : Split accross interleaves ±
± Interleave, duration : 80 ms (2.00 video frames) ±
± Interleave, preload duration : 500 ms ±
± Language : English ±
± Subtitles : English ±
± ±
± IMDb Rating : 6.1/10 ±
± IMDb URL : http://www.imdb.com/title/tt0090264/ ±
± ±
±°°°°°°°°°°°°°°°°°°°°°°°°°°°°°°°°°°°°°°°°°°°°°°°°°°°°°°°°°°°°°°°°°°°°°°°°°°°°°°±
± ±
± Roger Moore lends humour, elegance and lethal charm to his final performance ±
± as James Bond in A View To A Kill. Bond confronts Max Zorin (Christopher ±
± Walken), who has devised a plan to corner the world's microchip market, ±
± even if he has to kill millions to do it! But before Bond can stop the ±
± madman, he must confront Zorin's beautiful and deadly companion May Day ±
± (Grace Jones). ±
± ±
± ±
± ±
± ±
± ±
±°°°°°°°°°°°°°°°°°°°°°°°°°°°°°°°°°°°°°°°°°°°°°°°°°°°°°°°°°°°°°°°°°°°°°°°°°°°°°°±
± ±
± CAST: ±
± ±
± Roger Moore................James Bond ±
± Christopher Walken.........Max Zorin ±
± Tanya Roberts..............Stacey Sutton ±
± Grace Jones................May Day ±
± Patrick Macnee.............Sir Godfrey Tibbett ±
± Partick Bauchau............Scarpine ±
± David Yip..................Chuck Lee ±
± ±
±°°°°°°°°°°°°°°°°°°°°°°°°°°°°°°°°°°°°°°°°°°°°°°°°°°°°°°°°°°°°°°°°°°°°°°°°°°°°°°±
± ±
± Please remember to seed ±
± ±
± Standalone Enabled ±
± ±
± www.tornster.com ±
± ±
±±±±±±±±±±±±±±±±±±±±±±±±±±±±±±±±±±±±±±±±±±±±±±±±±±±±±±±±±±±±±±±±±±±±±±±±±±±±±±±±

related torrents

Torrent name

health leech seeds Size
 


comments (0)

Main Menu