Action

13 James Bond Octopussy1983DVDripEngAC35 1 Atlas47

  • Download 5x Faster
  • Download torrent
  • Direct Download
  • Rate this torrent +  |  -
13 James Bond Octopussy1983DVDripEngAC35 1 Atlas47

Free and Direct Download with Usenet.nl 300GB+ free


Torrent info

Name:13 James Bond Octopussy1983DVDripEngAC35 1 Atlas47

Total Size: 1.37 GB

Magnet: Magnet Link

Seeds: 3

Leechers: 4

Stream: Watch Online @ Movie4u

Last Updated: 2010-08-31 00:51:16 (Update Now)

Torrent added: 2009-08-21 14:48:13





Torrent Files List


Octopussy.nfo (Size: 1.37 GB) (Files: 5)

 Octopussy.nfo

10.14 KB

 Octopussy.sub

2.96 MB

 Octopussy.avi

1.37 GB

 Octopussy.idx

32.93 KB

 Covers

  James Bond - Octopussy.jpg

1.54 MB
 

Announce URL: http://tracker.thepiratebay.org:80/announce

Torrent description


±±±±±±±±±±±±±±±±±±±±±±±±±±±±±±>>www.tornster.com<<±±±±±±±±±±±±±±±±±±±±±±±±±±±±±±
± ±
± INFO: ±
± ±
± General ±
± Complete name : Octopussy ±
± Genre : Action / Adventure / Thriller ±
± Format : AVI ±
± Format/Info : Audio Video Interleave ±
± File size : 1.37 GiB ±
± Duration : 2h 05mn ±
± Overall bit rate : 1 562 Kbps ±
± Writing application : VirtualDubMod 1.5.4.1 (build 2178/release)±
± Writing library : VirtualDubMod build 2178/release ±
± ±
± Video ±
± Format : MPEG-4 Visual ±
± Format settings, BVOP : Yes ±
± Format settings, QPel : No ±
± Format settings, GMC : No warppoints ±
± Format settings, Matrix : Default ±
± Codec ID : DX50 ±
± Codec ID/Hint : DivX 5 ±
± Duration : 2h 05mn ±
± Bit rate : 1 107 Kbps ±
± Width : 608 pixels ±
± Height : 256 pixels ±
± Display aspect ratio : 2.35 ±
± Frame rate : 25.000 fps ±
± Resolution : 24 bits ±
± Colorimetry : 4:2:0 ±
± Scan type : Progressive ±
± Bits/(Pixel*Frame) : 0.284 ±
± Stream size : 992 MiB (71%) ±
± Writing library : DivX 2816 ±
± ±
± Audio ±
± Format : AC-3 ±
± Format/Info : Audio Coding 3 ±
± Codec ID : 2000 ±
± Duration : 2h 05mn ±
± Bit rate mode : Constant ±
± Bit rate : 448 Kbps ±
± Channel(s) : 6 channels ±
± Channel positions : Front: L C R, Surround: L R, LFE ±
± Sampling rate : 48.0 KHz ±
± Stream size : 402 MiB (28%) ±
± Alignment : Split accross interleaves ±
± Interleave, duration : 80 ms (2.00 video frames) ±
± Interleave, preload duration : 500 ms ±
± Language : English ±
± Subtitles : English ±
± ±
± IMDb Rating : 6.6/10 ±
± IMDb URL : http://www.imdb.com/title/tt0086034/ ±
± ±
±°°°°°°°°°°°°°°°°°°°°°°°°°°°°°°°°°°°°°°°°°°°°°°°°°°°°°°°°°°°°°°°°°°°°°°°°°°°°°°±
± ±
± From a thrilling jet chase to a climactic countdown to nuclear disaster, ±
± James Bond is back in a electrifying adventure that pushes the limit for ±
± nonstop excitement. Roger Moore portrays the immortal action hero, perfectly ±
± capturing Agent 007's deadly expertise, acerbic wt and overpowering sex ±
± appeal as he investigates the murder of a fellow agent who was clutching a ±
± priceless Faberge egg at the time of his death. ±
± ±
± ±
± ±
± ±
± ±
±°°°°°°°°°°°°°°°°°°°°°°°°°°°°°°°°°°°°°°°°°°°°°°°°°°°°°°°°°°°°°°°°°°°°°°°°°°°°°°±
± ±
± CAST: ±
± ±
± Roger Moore................James Bond ±
± Maud Adams.................Octopussy ±
± Louis Jourdan..............Kamal Khan ±
± Kristina Wayborn...........Magda ±
± Kabir Bedi.................Gorbinda ±
± Steven Berkoff.............General Orlov ±
± Desmond Llewelyn...........'Q' ±
± ±
±°°°°°°°°°°°°°°°°°°°°°°°°°°°°°°°°°°°°°°°°°°°°°°°°°°°°°°°°°°°°°°°°°°°°°°°°°°°°°°±
± ±
± Please remember to seed ±
± ±
± Standalone Enabled ±
± ±
± www.tornster.com ±
± ±
±±±±±±±±±±±±±±±±±±±±±±±±±±±±±±±±±±±±±±±±±±±±±±±±±±±±±±±±±±±±±±±±±±±±±±±±±±±±±±±±

related torrents

Torrent name

health leech seeds Size
 

comments (0)

Main Menu