Action

22 James Bond Quantum Of Solace2008DVDripEngAC35 1 Atlas47

  • Download 5x Faster
  • Download torrent
  • Direct Download
  • Rate this torrent +  |  -
22 James Bond Quantum Of Solace2008DVDripEngAC35 1 Atlas47

Anonymous and Direct Download 300GB+ free


Torrent info

Name:22 James Bond Quantum Of Solace2008DVDripEngAC35 1 Atlas47

Total Size: 1.37 GB

Magnet: Magnet Link

Seeds: 11

Leechers: 5

Stream: Watch Online @ Movie4u

Last Updated: 0000-00-00 00:00:00 (Update Now)

Torrent added: 2009-08-21 14:03:18




Torrent Files List


Quantum Of Solace.sub (Size: 1.37 GB) (Files: 5)

 Quantum Of Solace.sub

4.31 MB

 Quantum Of Solace.idx

53.82 KB

 Quantum Of Solace.nfo

10.14 KB

 Covers

  James Bond - Quantum Of Solace.jpg

1.54 MB

 Quantum Of Solace.avi

1.37 GB
 

Announce URL: http://tracker.torrentbox.com:2710/announce

Torrent description


±±±±±±±±±±±±±±±±±±±±±±±±±±±±±±>>www.tornster.com<<±±±±±±±±±±±±±±±±±±±±±±±±±±±±±±
± ±
± INFO: ±
± ±
± General ±
± Complete name : Quantum Of Solace ±
± Genre : Action / Adventure / Thriller ±
± Format : AVI ±
± Format/Info : Audio Video Interleave ±
± File size : 1.37 GiB ±
± Duration : 1h 41mn ±
± Overall bit rate : 1 922 Kbps ±
± Writing application : VirtualDubMod 1.5.4.1 (build 2178/release)±
± Writing library : VirtualDubMod build 2178/release ±
± ±
± Video ±
± Format : MPEG-4 Visual ±
± Format settings, BVOP : Yes ±
± Format settings, QPel : No ±
± Format settings, GMC : No warppoints ±
± Format settings, Matrix : Default ±
± Codec ID : DX50 ±
± Codec ID/Hint : DivX 5 ±
± Duration : 1h 41mn ±
± Bit rate : 1 467 Kbps ±
± Width : 704 pixels ±
± Height : 288 pixels ±
± Display aspect ratio : 2.444 ±
± Frame rate : 25.000 fps ±
± Resolution : 24 bits ±
± Colorimetry : 4:2:0 ±
± Scan type : Progressive ±
± Bits/(Pixel*Frame) : 0.289 ±
± Stream size : 1.04 GiB (76%) ±
± Writing library : DivX 2816 ±
± ±
± Audio ±
± Format : AC-3 ±
± Format/Info : Audio Coding 3 ±
± Codec ID : 2000 ±
± Duration : 1h 41mn ±
± Bit rate mode : Constant ±
± Bit rate : 448 Kbps ±
± Channel(s) : 6 channels ±
± Channel positions : Front: L C R, Surround: L R, LFE ±
± Sampling rate : 48.0 KHz ±
± Stream size : 326 MiB (23%) ±
± Alignment : Split accross interleaves ±
± Interleave, duration : 80 ms (2.00 video frames) ±
± Interleave, preload duration : 500 ms ±
± Language : English ±
± Subtitles : English ±
± ±
± IMDb Rating : 6.9/10 ±
± IMDb URL : http://www.imdb.com/title/tt0830515/ ±
± ±
±°°°°°°°°°°°°°°°°°°°°°°°°°°°°°°°°°°°°°°°°°°°°°°°°°°°°°°°°°°°°°°°°°°°°°°°°°°°°°°±
± ±
± On a nonstop quest for justice that crisscrosses the globe, Bond meets the ±
± beautiful but feisty Camille, who leads him to Dominic Greene, a ruthless ±
± businessman and a major force within the mysterious Quantum organisation. ±
± When Bond uncovers a conspiracy to take control of one of the world's most ±
± important natural resources, he must navigate a minefield of treachery, ±
± deception and murder to neutralise Quantum before it's too late! ±
± ±
± ±
± ±
± ±
± ±
±°°°°°°°°°°°°°°°°°°°°°°°°°°°°°°°°°°°°°°°°°°°°°°°°°°°°°°°°°°°°°°°°°°°°°°°°°°°°°°±
± ±
± CAST: ±
± ±
± Daniel Craig...............James Bond ±
± Olga Kurylenko.............Camille ±
± Mathieu Amalric............Dominic Greene ±
± Judi Dench.................M ±
± Jeffrey Wright.............Felix Leiter ±
± Giancarlo Giannini.........Mathis ±
± Gemma Arterton.............Strawberry Fields ±
± ±
±°°°°°°°°°°°°°°°°°°°°°°°°°°°°°°°°°°°°°°°°°°°°°°°°°°°°°°°°°°°°°°°°°°°°°°°°°°°°°°±
± ±
± Please remember to seed ±
± ±
± Standalone Enabled ±
± ±
± www.tornster.com ±
± ±
±±±±±±±±±±±±±±±±±±±±±±±±±±±±±±±±±±±±±±±±±±±±±±±±±±±±±±±±±±±±±±±±±±±±±±±±±±±±±±±±

related torrents

Torrent name

health leech seeds Size
 


comments (0)

Main Menu