Action

21 James Bond Casino Royale2006DVDripEngAC35 1 Atlas47

  • Download 5x Faster
  • Download torrent
  • Direct Download
  • Rate this torrent +  |  -
21 James Bond Casino Royale2006DVDripEngAC35 1 Atlas47

Anonymous and Free Direct Download 300GB+


Torrent info

Name:21 James Bond Casino Royale2006DVDripEngAC35 1 Atlas47

Total Size: 1.37 GB

Magnet: Magnet Link

Seeds: 4

Leechers: 3

Stream: Watch Online @ Movie4u

Last Updated: 2010-09-09 22:10:43 (Update Now)

Torrent added: 2009-08-21 14:01:38



VPN For Torrents

Torrent Files List


Casino Royale.sub (Size: 1.37 GB) (Files: 5)

 Casino Royale.sub

4.71 MB

 Casino Royale.nfo

10.14 KB

 Casino Royale.idx

48.37 KB

 Casino Royale.avi

1.37 GB

 Covers

  James Bond - Casino Royale.jpg

1.52 MB
 

Announce URL: http://tracker.thepiratebay.org:80/announce

Torrent description


±±±±±±±±±±±±±±±±±±±±±±±±±±±±±±>>www.tornster.com<<±±±±±±±±±±±±±±±±±±±±±±±±±±±±±±
± ±
± INFO: ±
± ±
± General ±
± Complete name : Casino Royale ±
± Genre : Action / Adventure / Thriller ±
± Format : AVI ±
± Format/Info : Audio Video Interleave ±
± File size : 1.37 GiB ±
± Duration : 2h 18mn ±
± Overall bit rate : 1 413 Kbps ±
± Writing application : VirtualDubMod 1.5.4.1 (build 2178/release)±
± Writing library : VirtualDubMod build 2178/release ±
± ±
± Video ±
± Format : MPEG-4 Visual ±
± Format settings, BVOP : Yes ±
± Format settings, QPel : No ±
± Format settings, GMC : No warppoints ±
± Format settings, Matrix : Default ±
± Codec ID : DX50 ±
± Codec ID/Hint : DivX 5 ±
± Duration : 2h 18mn ±
± Bit rate : 958 Kbps ±
± Width : 608 pixels ±
± Height : 256 pixels ±
± Display aspect ratio : 2.35 ±
± Frame rate : 25.000 fps ±
± Resolution : 24 bits ±
± Colorimetry : 4:2:0 ±
± Scan type : Progressive ±
± Bits/(Pixel*Frame) : 0.246 ±
± Stream size : 950 MiB (68%) ±
± Writing library : DivX 2816 ±
± ±
± Audio ±
± Format : AC-3 ±
± Format/Info : Audio Coding 3 ±
± Codec ID : 2000 ±
± Duration : 2h 18mn ±
± Bit rate mode : Constant ±
± Bit rate : 448 Kbps ±
± Channel(s) : 6 channels ±
± Channel positions : Front: L C R, Surround: L R, LFE ±
± Sampling rate : 48.0 KHz ±
± Stream size : 444 MiB (32%) ±
± Alignment : Split accross interleaves ±
± Interleave, duration : 80 ms (2.00 video frames) ±
± Interleave, preload duration : 500 ms ±
± Language : English ±
± Subtitles : English ±
± ±
± IMDb Rating : 8.0/10 ±
± IMDb URL : http://www.imdb.com/title/tt0381061/ ±
± ±
±°°°°°°°°°°°°°°°°°°°°°°°°°°°°°°°°°°°°°°°°°°°°°°°°°°°°°°°°°°°°°°°°°°°°°°°°°°°°°°±
± ±
± Daniel Craig stars as Agent 007 James Bond, the smoothest, sexiest, most ±
± lethal agent on Her Majesty's Secret Service in Casino Royale. Based on the ±
± first Bond book by Ian Fleming, the film recounts the making of the world's ±
± greatest Secret Agent. Bond's first mission pits him against Le Chiffre ±
± (Mads Mikkelsen), banker to world terrorists. In order to stop him, and ±
± bring down the terrorist network, Bond must defeat Le Chiffre in a high- ±
± stakes game of poker at Casino Royale. ±
± ±
± ±
± ±
± ±
±°°°°°°°°°°°°°°°°°°°°°°°°°°°°°°°°°°°°°°°°°°°°°°°°°°°°°°°°°°°°°°°°°°°°°°°°°°°°°°±
± ±
± CAST: ±
± ±
± Daniel Craig...............James Bond ±
± Eva Green..................Vesper Lynd ±
± Mads Mikkelsen.............Le Chiffre ±
± Judi Dench.................M ±
± Jeffrey Wright.............Felix Leiter ±
± Giancarlo Giannini.........Mathis ±
± Caterina Murino............Solange ±
± ±
±°°°°°°°°°°°°°°°°°°°°°°°°°°°°°°°°°°°°°°°°°°°°°°°°°°°°°°°°°°°°°°°°°°°°°°°°°°°°°°±
± ±
± Please remember to seed ±
± ±
± Standalone Enabled ±
± ±
± www.tornster.com ±
± ±
±±±±±±±±±±±±±±±±±±±±±±±±±±±±±±±±±±±±±±±±±±±±±±±±±±±±±±±±±±±±±±±±±±±±±±±±±±±±±±±±

related torrents

Torrent name

health leech seeds Size
 


comments (0)

Main Menu