Action

20 James Bond Die Another Day2002DVDripEngAC35 1 Atlas47

  • Download 5x Faster
  • Download torrent
  • Direct Download
  • Rate this torrent +  |  -

Torrent info

Name:20 James Bond Die Another Day2002DVDripEngAC35 1 Atlas47

Total Size: 1.37 GB

Magnet: Magnet Link

Seeds: 2

Leechers: 8

Stream: Watch Full Movie @ Movie4u

Last Updated: 2011-12-01 06:59:41 (Update Now)

Torrent added: 2009-08-21 13:58:29



VPN For Torrents

Torrent Files List


Die Another Day.nfo (Size: 1.37 GB) (Files: 5)

 Die Another Day.nfo

10.14 KB

 Die Another Day.sub

3.38 MB

 Die Another Day.avi

1.37 GB

 Die Another Day.idx

39.97 KB

 Covers

  James Bond - Die Another Day.jpg

1.53 MB
 

Announce URL: http://tracker.torrentbox.com:2710/announce

Torrent description


±±±±±±±±±±±±±±±±±±±±±±±±±±±±±±>>www.tornster.com<<±±±±±±±±±±±±±±±±±±±±±±±±±±±±±±
± ±
± INFO: ±
± ±
± General ±
± Complete name : Die Another Day ±
± Genre : Action / Adventure / Thriller ±
± Format : AVI ±
± Format/Info : Audio Video Interleave ±
± File size : 1.37 GiB ±
± Duration : 2h 07mn ±
± Overall bit rate : 1 542 Kbps ±
± Writing application : VirtualDubMod 1.5.4.1 (build 2178/release)±
± Writing library : VirtualDubMod build 2178/release ±
± ±
± Video ±
± Format : MPEG-4 Visual ±
± Format settings, BVOP : Yes ±
± Format settings, QPel : No ±
± Format settings, GMC : No warppoints ±
± Format settings, Matrix : Default ±
± Codec ID : DX50 ±
± Codec ID/Hint : DivX 5 ±
± Duration : 2h 07mn ±
± Bit rate : 1 086 Kbps ±
± Width : 608 pixels ±
± Height : 256 pixels ±
± Display aspect ratio : 2.35 ±
± Frame rate : 25.000 fps ±
± Resolution : 24 bits ±
± Colorimetry : 4:2:0 ±
± Scan type : Progressive ±
± Bits/(Pixel*Frame) : 0.279 ±
± Stream size : 987 MiB (70%) ±
± Writing library : DivX 2816 ±
± ±
± Audio ±
± Format : AC-3 ±
± Format/Info : Audio Coding 3 ±
± Codec ID : 2000 ±
± Duration : 2h 07mn ±
± Bit rate mode : Constant ±
± Bit rate : 448 Kbps ±
± Channel(s) : 6 channels ±
± Channel positions : Front: L C R, Surround: L R, LFE ±
± Sampling rate : 48.0 KHz ±
± Stream size : 407 MiB (29%) ±
± Alignment : Split accross interleaves ±
± Interleave, duration : 80 ms (2.00 video frames) ±
± Interleave, preload duration : 500 ms ±
± Language : English ±
± Subtitles : English ±
± ±
± IMDb Rating : 6.0/10 ±
± IMDb URL : http://www.imdb.com/title/tt0246460/ ±
± ±
±°°°°°°°°°°°°°°°°°°°°°°°°°°°°°°°°°°°°°°°°°°°°°°°°°°°°°°°°°°°°°°°°°°°°°°°°°°°°°°±
± ±
± James Bond (Pierce Brosnan) pulls out all the stops to take on an ±
± unforgettable, adrenaline-pumping ride across the globe in this action- ±
± filled adventure! From a dark cell in a North Korean prison to the beautiful ±
± beaches of Cuba, 007 is on the trail of a diabolical genius who's hellbent ±
± on slicing up the earth...literally. Now, it's up to Bond, with help from a ±
± sultry American agent (Halle Berry), to put the evil mastermind's plns on ±
± ice. ±
± ±
± ±
± ±
± ±
±°°°°°°°°°°°°°°°°°°°°°°°°°°°°°°°°°°°°°°°°°°°°°°°°°°°°°°°°°°°°°°°°°°°°°°°°°°°°°°±
± ±
± CAST: ±
± ±
± Pierce Brosnan.............James Bond ±
± Halle Berry................Jinx ±
± Toby Stephens..............Gustav Graves ±
± Rosamund Pike..............Miranda Frost ±
± Rick Yune..................Zao ±
± Judi Dench.................M ±
± John Cleese................Q ±
± ±
±°°°°°°°°°°°°°°°°°°°°°°°°°°°°°°°°°°°°°°°°°°°°°°°°°°°°°°°°°°°°°°°°°°°°°°°°°°°°°°±
± ±
± Please remember to seed ±
± ±
± Standalone Enabled ±
± ±
± www.tornster.com ±
± ±
±±±±±±±±±±±±±±±±±±±±±±±±±±±±±±±±±±±±±±±±±±±±±±±±±±±±±±±±±±±±±±±±±±±±±±±±±±±±±±±±

related torrents

Torrent name

health leech seeds Size
 


comments (0)

Main Menu

 

script data-cfasync="false" src="//d2ghscazvn398x.cloudfront.net/?cshgd=690275">