Action

19 James Bond The World Is Not Enough1999DVDripEngAC35 1 Atlas47

  • Download 5x Faster
  • Download torrent
  • Direct Download
  • Rate this torrent +  |  -
19 James Bond The World Is Not Enough1999DVDripEngAC35 1 Atlas47

Free and Direct Download with Usenet.nl 300GB+ free


Torrent info

Name:19 James Bond The World Is Not Enough1999DVDripEngAC35 1 Atlas47

Total Size: 1.37 GB

Magnet: Magnet Link

Seeds: 2

Leechers: 4

Stream: Watch Online @ Movie4u

Last Updated: 2011-10-20 16:09:34 (Update Now)

Torrent added: 2009-08-21 13:57:23





Torrent Files List


The World Is Not Enough.nfo (Size: 1.37 GB) (Files: 5)

 The World Is Not Enough.nfo

10.14 KB

 The World Is Not Enough.sub

3.84 MB

 The World Is Not Enough.avi

1.37 GB

 The World Is Not Enough.idx

41.40 KB

 Covers

  James Bond - The World Is Not Enough.jpg

1.48 MB
 

Announce URL: http://tracker.torrentbox.com:2710/announce

Torrent description


±±±±±±±±±±±±±±±±±±±±±±±±±±±±±±>>www.tornster.com<<±±±±±±±±±±±±±±±±±±±±±±±±±±±±±±
± ±
± INFO: ±
± ±
± General ±
± Complete name : Tomorrow Never Dies ±
± Genre : Action / Adventure / Thriller ±
± Format : AVI ±
± Format/Info : Audio Video Interleave ±
± File size : 1.37 GiB ±
± Duration : 2h 03mn ±
± Overall bit rate : 1 591 Kbps ±
± Writing application : VirtualDubMod 1.5.4.1 (build 2178/release)±
± Writing library : VirtualDubMod build 2178/release ±
± ±
± Video ±
± Format : MPEG-4 Visual ±
± Format settings, BVOP : Yes ±
± Format settings, QPel : No ±
± Format settings, GMC : No warppoints ±
± Format settings, Matrix : Default ±
± Codec ID : DX50 ±
± Codec ID/Hint : DivX 5 ±
± Duration : 2h 03mn ±
± Bit rate : 1 136 Kbps ±
± Width : 704 pixels ±
± Height : 304 pixels ±
± Display aspect ratio : 2.35 ±
± Frame rate : 25.000 fps ±
± Resolution : 24 bits ±
± Colorimetry : 4:2:0 ±
± Scan type : Progressive ±
± Bits/(Pixel*Frame) : 0.212 ±
± Stream size : 1.00 GiB (71%) ±
± Writing library : DivX 2816 ±
± ±
± Audio ±
± Format : AC-3 ±
± Format/Info : Audio Coding 3 ±
± Codec ID : 2000 ±
± Duration : 2h 03mn ±
± Bit rate mode : Constant ±
± Bit rate : 448 Kbps ±
± Channel(s) : 6 channels ±
± Channel positions : Front: L C R, Surround: L R, LFE ±
± Sampling rate : 48.0 KHz ±
± Stream size : 394 MiB (28%) ±
± Alignment : Split accross interleaves ±
± Interleave, duration : 80 ms (2.00 video frames) ±
± Interleave, preload duration : 500 ms ±
± Language : English ±
± Subtitles : English ±
± ±
± IMDb Rating : 6.3/10 ±
± IMDb URL : http://www.imdb.com/title/tt0143145/ ±
± ±
±°°°°°°°°°°°°°°°°°°°°°°°°°°°°°°°°°°°°°°°°°°°°°°°°°°°°°°°°°°°°°°°°°°°°°°°°°°°°°°±
± ±
± The World Is Not Enough is an exhilarating but sophisticated action-packed ±
± adventure. With insight and intelligence, the producers, writers, director ±
± Michael Apted and Pierce Brosnan reveal a new and exciting dimension to a ±
± character that has been in the public consciousness for almost 40 years. The ±
± film establishes Ian Fleming's legendary creation as one of the most popular ±
± literary and cinematic characters of all time. Pierce Brosnan returns as ±
± Bond, charged to protect a gorgeous billionaire heiress (Sophie Marceau) ±
± from the ruthless hands of nuclear-obsessed terrorist Renard (Robert ±
± Carlyle), who wants control of the world's petroleum supply. ±
± ±
± ±
±°°°°°°°°°°°°°°°°°°°°°°°°°°°°°°°°°°°°°°°°°°°°°°°°°°°°°°°°°°°°°°°°°°°°°°°°°°°°°°±
± ±
± CAST: ±
± ±
± Pierce Brosnan.............James Bond ±
± Sophie Marceau.............Elektra King ±
± Robert Carlyle.............Renard ±
± Denise Richards............Christmas Jones ±
± Robbie Coltrane............Valentin Zukovsky ±
± Judi Dench.................M ±
± Desmond Llewelyn...........Q ±
± ±
±°°°°°°°°°°°°°°°°°°°°°°°°°°°°°°°°°°°°°°°°°°°°°°°°°°°°°°°°°°°°°°°°°°°°°°°°°°°°°°±
± ±
± Please remember to seed ±
± ±
± Standalone Enabled ±
± ±
± www.tornster.com ±
± ±
±±±±±±±±±±±±±±±±±±±±±±±±±±±±±±±±±±±±±±±±±±±±±±±±±±±±±±±±±±±±±±±±±±±±±±±±±±±±±±±±

related torrents

Torrent name

health leech seeds Size
 

comments (0)

Main Menu