Action

18 James Bond Tomorrow Never Dies1997DVDripEngAC35 1 Atlas47

  • Download 5x Faster
  • Download torrent
  • Direct Download
  • Rate this torrent +  |  -

Torrent info

Name:18 James Bond Tomorrow Never Dies1997DVDripEngAC35 1 Atlas47

Total Size: 1.37 GB

Magnet: Magnet Link

Seeds: 0

Leechers: 2

Stream: Watch Online @ Movie4u

Last Updated: 0000-00-00 00:00:00 (Update Now)

Torrent added: 2009-08-21 13:57:09



VPN For Torrents

Torrent Files List


Tomorrow Never Dies.sub (Size: 1.37 GB) (Files: 5)

 Tomorrow Never Dies.sub

4.07 MB

 Tomorrow Never Dies.nfo

10.14 KB

 Tomorrow Never Dies.avi

1.37 GB

 Tomorrow Never Dies.idx

41.39 KB

 Covers

  James Bond - Tomorrow Never Dies.jpg

1.48 MB
 

Announce URL: http://tracker.torrentbox.com:2710/announce

Torrent description


±±±±±±±±±±±±±±±±±±±±±±±±±±±±±±>>www.tornster.com<<±±±±±±±±±±±±±±±±±±±±±±±±±±±±±±
± ±
± INFO: ±
± ±
± General ±
± Complete name : Tomorrow Never Dies ±
± Genre : Action / Adventure / Thriller ±
± Format : AVI ±
± Format/Info : Audio Video Interleave ±
± File size : 1.37 GiB ±
± Duration : 1h 54mn ±
± Overall bit rate : 1 713 Kbps ±
± Writing application : VirtualDubMod 1.5.4.1 (build 2178/release)±
± Writing library : VirtualDubMod build 2178/release ±
± ±
± Video ±
± Format : MPEG-4 Visual ±
± Format settings, BVOP : Yes ±
± Format settings, QPel : No ±
± Format settings, GMC : No warppoints ±
± Format settings, Matrix : Default ±
± Codec ID : DX50 ±
± Codec ID/Hint : DivX 5 ±
± Duration : 1h 54mn ±
± Bit rate : 1 258 Kbps ±
± Width : 704 pixels ±
± Height : 304 pixels ±
± Display aspect ratio : 2.35 ±
± Frame rate : 25.000 fps ±
± Resolution : 24 bits ±
± Colorimetry : 4:2:0 ±
± Scan type : Progressive ±
± Bits/(Pixel*Frame) : 0.235 ±
± Stream size : 1.00 GiB (73%) ±
± Writing library : DivX 2816 ±
± ±
± Audio ±
± Format : AC-3 ±
± Format/Info : Audio Coding 3 ±
± Codec ID : 2000 ±
± Duration : 1h 54mn ±
± Bit rate mode : Constant ±
± Bit rate : 448 Kbps ±
± Channel(s) : 6 channels ±
± Channel positions : Front: L C R, Surround: L R, LFE ±
± Sampling rate : 48.0 KHz ±
± Stream size : 366 MiB (26%) ±
± Alignment : Split accross interleaves ±
± Interleave, duration : 80 ms (2.00 video frames) ±
± Interleave, preload duration : 500 ms ±
± Language : English ±
± Subtitles : English ±
± ±
± IMDb Rating : 6.4/10 ±
± IMDb URL : http://www.imdb.com/title/tt0120347/ ±
± ±
±°°°°°°°°°°°°°°°°°°°°°°°°°°°°°°°°°°°°°°°°°°°°°°°°°°°°°°°°°°°°°°°°°°°°°°°°°°°°°°±
± ±
± Pierce Brosnan returns as the fearless, cunning and devastatingly cool ±
± secret agent 007 in this thrilling adventure! When a ruthless media tycoon ±
± (Jonathan Pryce) tries to destabilise the world economy by orchestrating a ±
± deadly standoff between world superpowers in an attempt to achieve high ±
± ratings for his media conglomerate, Bond must step in to prevent World War ±
± III! Co-starring the gorgeous Teri Hatcher and Michelle Yeoh, high-tech ±
± action-adventure will exhilarate fans of all ages! ±
± ±
± ±
± ±
± ±
±°°°°°°°°°°°°°°°°°°°°°°°°°°°°°°°°°°°°°°°°°°°°°°°°°°°°°°°°°°°°°°°°°°°°°°°°°°°°°°±
± ±
± CAST: ±
± ±
± Pierce Brosnan.............James Bond ±
± Jonathan Pryce.............Elliot Carver ±
± Michelle Yeoh..............Wai Lin ±
± Teri Hatcher...............Paris Carver ±
± Joe Don Baker..............Jack Wade ±
± Ricky Jay..................Henry Gupta ±
± Gotz Otto..................Stamper ±
± ±
±°°°°°°°°°°°°°°°°°°°°°°°°°°°°°°°°°°°°°°°°°°°°°°°°°°°°°°°°°°°°°°°°°°°°°°°°°°°°°°±
± ±
± Please remember to seed ±
± ±
± Standalone Enabled ±
± ±
± www.tornster.com ±
± ±
±±±±±±±±±±±±±±±±±±±±±±±±±±±±±±±±±±±±±±±±±±±±±±±±±±±±±±±±±±±±±±±±±±±±±±±±±±±±±±±±

related torrents

Torrent name

health leech seeds Size
 


comments (0)

Main Menu