Action

17 James Bond GoldenEye1995DVDripEngAC35 1 Atlas47

  • Download 5x Faster
  • Download torrent
  • Direct Download
  • Rate this torrent +  |  -
17 James Bond GoldenEye1995DVDripEngAC35 1 Atlas47

Free and Direct Download with Usenet.nl 300GB+ free


Torrent info

Name:17 James Bond GoldenEye1995DVDripEngAC35 1 Atlas47

Total Size: 1.37 GB

Magnet: Magnet Link

Seeds: 26

Leechers: 10

Stream: Watch Online @ Movie4u

Last Updated: 0000-00-00 00:00:00 (Update Now)

Torrent added: 2009-08-21 13:57:04





Torrent Files List


GoldenEye.sub (Size: 1.37 GB) (Files: 5)

 GoldenEye.sub

3.39 MB

 GoldenEye.idx

37.30 KB

 GoldenEye.nfo

10.14 KB

 GoldenEye.avi

1.37 GB

 Covers

  James Bond - GoldenEye.jpg

1.56 MB
 

Announce URL: http://tracker.torrentbox.com:2710/announce

Torrent description


±±±±±±±±±±±±±±±±±±±±±±±±±±±±±±>>www.tornster.com<<±±±±±±±±±±±±±±±±±±±±±±±±±±±±±±
± ±
± INFO: ±
± ±
± General ±
± Complete name : GoldenEye ±
± Genre : Action / Adventure / Thriller ±
± Format : AVI ±
± Format/Info : Audio Video Interleave ±
± File size : 1.37 GiB ±
± Duration : 2h 04mn ±
± Overall bit rate : 1 571 Kbps ±
± Writing application : VirtualDubMod 1.5.4.1 (build 2178/release)±
± Writing library : VirtualDubMod build 2178/release ±
± ±
± Video ±
± Format : MPEG-4 Visual ±
± Format settings, BVOP : Yes ±
± Format settings, QPel : No ±
± Format settings, GMC : No warppoints ±
± Format settings, Matrix : Default ±
± Codec ID : DX50 ±
± Codec ID/Hint : DivX 5 ±
± Duration : 2h 04mn ±
± Bit rate : 1 115 Kbps ±
± Width : 688 pixels ±
± Height : 288 pixels ±
± Display aspect ratio : 2.35 ±
± Frame rate : 25.000 fps ±
± Resolution : 24 bits ±
± Colorimetry : 4:2:0 ±
± Scan type : Progressive ±
± Bits/(Pixel*Frame) : 0.225 ±
± Stream size : 995 MiB (71%) ±
± Writing library : DivX 2816 ±
± ±
± Audio ±
± Format : AC-3 ±
± Format/Info : Audio Coding 3 ±
± Codec ID : 2000 ±
± Duration : 2h 04mn ±
± Bit rate mode : Constant ±
± Bit rate : 448 Kbps ±
± Channel(s) : 6 channels ±
± Channel positions : Front: L C R, Surround: L R, LFE ±
± Sampling rate : 48.0 KHz ±
± Stream size : 399 MiB (29%) ±
± Alignment : Split accross interleaves ±
± Interleave, duration : 80 ms (2.00 video frames) ±
± Interleave, preload duration : 500 ms ±
± Language : English ±
± Subtitles : English ±
± ±
± IMDb Rating : 7.1/10 ±
± IMDb URL : http://www.imdb.com/title/tt0113189/ ±
± ±
±°°°°°°°°°°°°°°°°°°°°°°°°°°°°°°°°°°°°°°°°°°°°°°°°°°°°°°°°°°°°°°°°°°°°°°°°°°°°°°±
± ±
± The effortlessly suave and sophisticated Pierce Brosnan makes his acclaimed ±
± debut as Agent 007 in this rip-roaring espionage thriller featuring the most ±
± eye-popping opening sequence yet! When an MI6 agent (Sean Bean) turns rogue ±
± and plans world domination with a terrifying satellite-borne weapon, Bond ±
± must pursue his former ally to Cuba, Monte Carlo, Switzerland and even ±
± Russia, all while dodging a sexy, deadly femme fatale (Famke Janssen) who ±
± will stop at nothing to put the "squeeze" on the intrepid spy! ±
± ±
± ±
± ±
± ±
±°°°°°°°°°°°°°°°°°°°°°°°°°°°°°°°°°°°°°°°°°°°°°°°°°°°°°°°°°°°°°°°°°°°°°°°°°°°°°°±
± ±
± CAST: ±
± ±
± Pierce Brosnan.............James Bond ±
± Sean Bean..................Alec Trevelyan / Janus ±
± Izabelle Scorupco..........Natalya Fyodorovna Simonova ±
± Famke Janssen..............Xenia Zirgavna Onatopp ±
± Joe Don Baker..............Jack Wade ±
± Judi Dench.................M ±
± Gottfried John.............General Arkady Grigorvich Ourumov ±
± ±
±°°°°°°°°°°°°°°°°°°°°°°°°°°°°°°°°°°°°°°°°°°°°°°°°°°°°°°°°°°°°°°°°°°°°°°°°°°°°°°±
± ±
± Please remember to seed ±
± ±
± Standalone Enabled ±
± ±
± www.tornster.com ±
± ±
±±±±±±±±±±±±±±±±±±±±±±±±±±±±±±±±±±±±±±±±±±±±±±±±±±±±±±±±±±±±±±±±±±±±±±±±±±±±±±±±

related torrents

Torrent name

health leech seeds Size
 

comments (0)

Main Menu