Action

12 James Bond For Your Eyes Only1981DVDripEngAC35 1 Atlas47

  • Download 5x Faster
  • Download torrent
  • Direct Download
  • Rate this torrent +  |  -
12 James Bond For Your Eyes Only1981DVDripEngAC35 1 Atlas47

Anonymous and Direct Download 300GB+ free


Torrent info

Name:12 James Bond For Your Eyes Only1981DVDripEngAC35 1 Atlas47

Total Size: 1.37 GB

Magnet: Magnet Link

Seeds: 0

Leechers: 1

Stream: Watch Online @ Movie4u

Last Updated: 2011-10-10 11:15:44 (Update Now)

Torrent added: 2009-08-21 13:55:30




Torrent Files List


For Your Eyes Only.sub (Size: 1.37 GB) (Files: 5)

 For Your Eyes Only.sub

2.95 MB

 For Your Eyes Only.nfo

10.14 KB

 For Your Eyes Only.idx

31.99 KB

 For Your Eyes Only.avi

1.37 GB

 Covers

  James Bond - For Your Eyes Only.jpg

1.46 MB
 

Announce URL: http://tracker.torrentbox.com:2710/announce

Torrent description


±±±±±±±±±±±±±±±±±±±±±±±±±±±±±±>>www.tornster.com<<±±±±±±±±±±±±±±±±±±±±±±±±±±±±±±
± ±
± INFO: ±
± ±
± General ±
± Complete name : For Your Eyes Only ±
± Genre : Action / Adventure / Thriller ±
± Format : AVI ±
± Format/Info : Audio Video Interleave ±
± File size : 1.37 GiB ±
± Duration : 2h 02mn ±
± Overall bit rate : 1 597 Kbps ±
± Writing application : VirtualDubMod 1.5.4.1 (build 2178/release)±
± Writing library : VirtualDubMod build 2178/release ±
± ±
± Video ±
± Format : MPEG-4 Visual ±
± Format settings, BVOP : Yes ±
± Format settings, QPel : No ±
± Format settings, GMC : No warppoints ±
± Format settings, Matrix : Default ±
± Codec ID : DX50 ±
± Codec ID/Hint : DivX 5 ±
± Duration : 2h 02mn ±
± Bit rate : 1 142 Kbps ±
± Width : 624 pixels ±
± Height : 272 pixels ±
± Display aspect ratio : 2.25 ±
± Frame rate : 25.000 fps ±
± Resolution : 24 bits ±
± Colorimetry : 4:2:0 ±
± Scan type : Progressive ±
± Bits/(Pixel*Frame) : 0.269 ±
± Stream size : 1.001 MiB (71%) ±
± Writing library : DivX 2816 ±
± ±
± Audio ±
± Format : AC-3 ±
± Format/Info : Audio Coding 3 ±
± Codec ID : 2000 ±
± Duration : 2h 02mn ±
± Bit rate mode : Constant ±
± Bit rate : 448 Kbps ±
± Channel(s) : 6 channels ±
± Channel positions : Front: L C R, Surround: L R, LFE ±
± Sampling rate : 48.0 KHz ±
± Stream size : 393 MiB (28%) ±
± Alignment : Split accross interleaves ±
± Interleave, duration : 80 ms (2.00 video frames) ±
± Interleave, preload duration : 500 ms ±
± Language : English ±
± Subtitles : English ±
± ±
± IMDb Rating : 6.8/10 ±
± IMDb URL : http://www.imdb.com/title/tt0082398/ ±
± ±
±°°°°°°°°°°°°°°°°°°°°°°°°°°°°°°°°°°°°°°°°°°°°°°°°°°°°°°°°°°°°°°°°°°°°°°°°°°°°°°±
± ±
± James Bond is thrust into one of his most riveting adventures in this ±
± jam-packed free-for-all of outrageous stunts, passionate encounters and ±
± exciting confrontations. Roger Moore portrays Agent 007 with lethal ±
± determination in a plot that finds him infiltrating the Greek underworld and ±
± racing against time to find a stolen device capable of controllind a fleet ±
± of nuclear submarines. ±
± ±
± ±
± ±
± ±
± ±
±°°°°°°°°°°°°°°°°°°°°°°°°°°°°°°°°°°°°°°°°°°°°°°°°°°°°°°°°°°°°°°°°°°°°°°°°°°°°°°±
± ±
± CAST: ±
± ±
± Roger Moore................James Bond ±
± Carole Bouquet.............Melina Havelock ±
± Topol......................Milos Columbo ±
± Lynn-Holly Johnson.........Bibi Dahl ±
± Julian Glover..............Aristotle Kristatos ±
± Cassandra Harris...........Countess Lisl von Schlaf ±
± Jill Bennett...............Jacoba Brink ±
± ±
±°°°°°°°°°°°°°°°°°°°°°°°°°°°°°°°°°°°°°°°°°°°°°°°°°°°°°°°°°°°°°°°°°°°°°°°°°°°°°°±
± ±
± Please remember to seed ±
± ±
± Seeding is good for the soul ±
± ±
± www.tornster.com ±
± ±
±±±±±±±±±±±±±±±±±±±±±±±±±±±±±±±±±±±±±±±±±±±±±±±±±±±±±±±±±±±±±±±±±±±±±±±±±±±±±±±±

related torrents

Torrent name

health leech seeds Size
 


comments (0)

Main Menu