Action

11 James Bond Moonraker1979DVDripEngAC35 1 Atlas47

  • Download 5x Faster
  • Download torrent
  • Direct Download
  • Rate this torrent +  |  -
11 James Bond Moonraker1979DVDripEngAC35 1 Atlas47

Free and Direct Download with Usenet 300GB+ free


Torrent info

Name:11 James Bond Moonraker1979DVDripEngAC35 1 Atlas47

Total Size: 1.37 GB

Magnet: Magnet Link

Seeds: 0

Leechers: 3

Stream: Watch Online @ Movie4u

Last Updated: 2011-01-06 21:29:46 (Update Now)

Torrent added: 2009-08-21 13:55:14




Torrent Files List


Torrent_downloaded_from_Demonoid.com.txt (Size: 1.37 GB) (Files: 6)

 Torrent_downloaded_from_Demonoid.com.txt

0.05 KB

 Moonraker.idx

30.11 KB

 Moonraker.nfo

10.30 KB

 Moonraker.sub

2.80 MB

 Covers

  James Bond - Moonraker.jpg

399.43 KB

 Moonraker.avi

1.37 GB
 

Announce URL: http://tracker.torrentbox.com:2710/announce

Torrent description


±±±±±±±±±±±±±±±±±±±±±±±±±±±±±±>>www.tornster.com<<±±±±±±±±±±±±±±±±±±±±±±±±±±±±±±
± ±
± INFO: ±
± ±
± General ±
± Complete name : Moonraker ±
± Genre : Action / Adventure / Thriller / Sci-Fi ±
± Format : AVI ±
± Format/Info : Audio Video Interleave ±
± File size : 1.37 GiB ±
± Duration : 2h 01mn ±
± Overall bit rate : 1 616 Kbps ±
± Writing application : VirtualDubMod 1.5.4.1 (build 2178/release)±
± Writing library : VirtualDubMod build 2178/release ±
± ±
± Video ±
± Format : MPEG-4 Visual ±
± Format settings, BVOP : Yes ±
± Format settings, QPel : No ±
± Format settings, GMC : No warppoints ±
± Format settings, Matrix : Default ±
± Codec ID : DX50 ±
± Codec ID/Hint : DivX 5 ±
± Duration : 2h 01mn ±
± Bit rate : 1 160 Kbps ±
± Width : 688 pixels ±
± Height : 288 pixels ±
± Display aspect ratio : 2.35 ±
± Frame rate : 25.000 fps ±
± Resolution : 24 bits ±
± Colorimetry : 4:2:0 ±
± Scan type : Progressive ±
± Bits/(Pixel*Frame) : 0.234 ±
± Stream size : 1.006 MiB (72%) ±
± Writing library : DivX 2816 ±
± ±
± Audio ±
± Format : AC-3 ±
± Format/Info : Audio Coding 3 ±
± Codec ID : 2000 ±
± Duration : 2h 01mn ±
± Bit rate mode : Constant ±
± Bit rate : 448 Kbps ±
± Channel(s) : 6 channels ±
± Channel positions : Front: L C R, Surround: L R, LFE ±
± Sampling rate : 48.0 KHz ±
± Stream size : 388 MiB (28%) ±
± Alignment : Split accross interleaves ±
± Interleave, duration : 80 ms (2.00 video frames) ±
± Interleave, preload duration : 500 ms ±
± Language : English ±
± Subtitles : English ±
± ±
± IMDb Rating : 6.1/10 ±
± IMDb URL : http://www.imdb.com/title/tt0079574/ ±
± ±
±°°°°°°°°°°°°°°°°°°°°°°°°°°°°°°°°°°°°°°°°°°°°°°°°°°°°°°°°°°°°°°°°°°°°°°°°°°°°°°±
± ±
± James Bond blasts into orbit in this pulse-pounding adventure that takes him ±
± from Venice to Rio de Janeiro and to outer space! Roger Moore stars for the ±
± fourth time as Agent 007 and joins forces with NASA scientist Holly Goodhead ±
± (Lois Chiles) to prevent a power-mad industrialist (Michael Lonsdale) from ±
± destroying all human life on Earth. ±
± ±
± ±
± ±
± ±
± ±
± ±
±°°°°°°°°°°°°°°°°°°°°°°°°°°°°°°°°°°°°°°°°°°°°°°°°°°°°°°°°°°°°°°°°°°°°°°°°°°°°°°±
± ±
± CAST: ±
± ±
± Roger Moore................James Bond ±
± Lois Chiles................Dr. Holly Goodhead ±
± Michael Lonsdale...........Hugo Drax ±
± Richard Kiel...............Jaws ±
± Corinne Clery..............Corinne Dufour ±
± Bernard Lee................'M' ±
± Geoffrey Keen..............Sir Frederick Gray ±
± ±
±°°°°°°°°°°°°°°°°°°°°°°°°°°°°°°°°°°°°°°°°°°°°°°°°°°°°°°°°°°°°°°°°°°°°°°°°°°°°°°±
± ±
± Please remember to seed ±
± ±
± Seeding is good for the soul ±
± ±
± www.tornster.com ±
± ±
±±±±±±±±±±±±±±±±±±±±±±±±±±±±±±±±±±±±±±±±±±±±±±±±±±±±±±±±±±±±±±±±±±±±±±±±±±±±±±±±

related torrents

Torrent name

health leech seeds Size
 

comments (0)

Main Menu