Pop

Rino Gaetano Sotto i cieli di Rino 2 cd Flac+cuetnt village scambioetico orgby ramasutra

  • Download 5x Faster
  • Download torrent
  • Direct Download
  • Rate this torrent +  |  -

Torrent info

Name:Rino Gaetano Sotto i cieli di Rino 2 cd Flac+cuetnt village scambioetico orgby ramasutra

Total Size: 661.35 MB

Magnet: Magnet Link

Seeds: 9

Leechers: 1

Stream: Watch Online @ Movie4u

Last Updated: 2016-03-26 11:48:11 (Update Now)

Torrent added: 2008-07-18 00:34:15




Torrent Files List


cd 1 (Size: 661.35 MB) (Files: 8)

 cd 1

  Rino Gaetano - Sotto I Cieli Di Rino (CD1).cue

1.53 KB

  Rino Gaetano - Sotto I Cieli Di Rino (CD1).flac

328.41 MB

  Sotto I Cieli Di Rino (CD1).log

3.74 KB

 cd 2

  Rino Gaetano - Sotto I Cieli Di Rino (CD2).cue

1.55 KB

  Rino Gaetano - Sotto I Cieli Di Rino (CD2).flac

332.38 MB

  Sotto I Cieli Di Rino (CD2).log

3.68 KB

 Rino Gaetano - Sotto I Cieli Di Rino - Back.jpg

298.61 KB

 Rino Gaetano - Sotto I Cieli Di Rino - Front.jpg

263.54 KB
 

tracker

leech seeds
 

Torrent description

Autore:Rino Gaetano
Titolo: Sotto i cieli di Rino
Anno:
Genere: Pop, Pop Italiano, Cantautori
Etichetta:BMG
fonte cd /originale /cdda
Cover : Incluse
------------------------------------------------------------------------------------------------------------------------
[color=green]:::->Tracklist<-:::[/color]

CD1
Ma il cielo è sempre più blu (Molella remix) - 3:13
Nuntereggae più - 5:11
Berta filava - 3:41
Spendi spandi effendi - 4:04
Aida - 4:27
Mio fratello è figlio unico - 3:20
Escluso il cane - 4:19
Io scriverò - 4:15
E io ci sto - 4:07
Ti ti ti ti - 3:18
Michele o' pazzo è pazzo davvero - 3:38
E cantava le canzoni - 3:18
Rare tracce - 2:52

CD2
Gianna - 3:53
Ahi Maria - 5:38
Sfiorivano le viole - 5:00
I tuoi occhi sono pieni di sale - 2:55
Tu, forse non essenzialmente tu - 3:38
Cogli la mia rosa d'amore - 4:02
Ad esempio a me piace il sud - 4:16
A Khatmandu - 2:56
Sei ottavi - 3:21
Le beatitudini - 3:54
Nel letto di Lucia - 4:43
Glu glu - 2:38
Ma il cielo è sempre più blu (2a parte) - 4:13


-----------------------------------------------------------------------------------------------------------------------
Sotto i cieli di Rino (2003) è una doppia raccolta postuma del cantautore italiano Rino Gaetano. Nel 2005 è stata pubblicata una raccolta di tre cd dal titolo Sotto i cieli di Rino Special Edition contenente cinquanta brani, tra cui 4 inediti in spagnolo.







[color=green]:::->Dati Tecnici<-:::[/color]

[color=red] Formato : Flac [/color]
Programma usato [Eac]

[CODE]
Exact Audio Copy V0.99 prebeta 3 from 28. July 2007

EAC extraction logfile from 15. July 2008, 14:51

Rino Gaetano / Sotto I Cieli Di Rino (CD1)

Used drive : _NEC DVD_RW ND-3550A Adapter: 5 ID: 0

Read mode : Secure
Utilize accurate stream : Yes
Defeat audio cache : Yes
Make use of C2 pointers : No

Read offset correction : 48
Overread into Lead-In and Lead-Out : No
Fill up missing offset samples with silence : Yes
Delete leading and trailing silent blocks : No
Null samples used in CRC calculations : No
Used interface : Installed external ASPI interface

Used output format : User Defined Encoder
Selected bitrate : 768 kBit/s
Quality : High
Add ID3 tag : No
Command line compressor : C:\Programmi\Exact Audio Copy\FLAC\FLAC.EXE
Additional command line options : -6 -V -T "ARTIST=%a" -T "TITLE=%t" -T "ALBUM=%g" -T "DATE=%y" -T "TRACKNUMBER=%n" -T "GENRE=%m" -T "COMMENT=%e" %s -o %d


TOC of the extracted CD

Track | Start | Length | Start sector | End sector
---------------------------------------------------------
1 | 0:00.00 | 3:13.70 | 0 | 14544
2 | 3:13.70 | 5:11.50 | 14545 | 37919
3 | 8:25.45 | 3:41.47 | 37920 | 54541
4 | 12:07.17 | 4:04.06 | 54542 | 72847
5 | 16:11.23 | 4:27.37 | 72848 | 92909
6 | 20:38.60 | 3:20.73 | 92910 | 107982
7 | 23:59.58 | 4:19.44 | 107983 | 127451
8 | 28:19.27 | 4:15.55 | 127452 | 146631
9 | 32:35.07 | 4:07.28 | 146632 | 165184
10 | 36:42.35 | 3:18.74 | 165185 | 180108
11 | 40:01.34 | 3:38.31 | 180109 | 196489
12 | 43:39.65 | 3:18.26 | 196490 | 211365
13 | 46:58.16 | 2:52.10 | 211366 | 224275


Range status and errors

Selected range

Filename D:\Documents and Settings\salvo.SN116508160310\Documenti\Rino Gaetano - Sotto I Cieli Di Rino (CD1).wav

Peak level 96.2 %
Range quality 100.0 %
Test CRC 32084DC9
Copy CRC 32084DC9
Copy OK

No errors occurred


AccurateRip summary

Track 1 cannot be verified as accurate (confidence 2) [113F1E6C], AccurateRip returned [B6B52964]
Track 2 cannot be verified as accurate (confidence 2) [F5BDB350], AccurateRip returned [9F133EFD]
Track 3 cannot be verified as accurate (confidence 2) [B8472A69], AccurateRip returned [6A767D3B]
Track 4 cannot be verified as accurate (confidence 2) [25C55198], AccurateRip returned [EBEA8627]
Track 5 cannot be verified as accurate (confidence 2) [CECBA9B0], AccurateRip returned [B4C78779]
Track 6 cannot be verified as accurate (confidence 2) [6AA8CD34], AccurateRip returned [816ECC98]
Track 7 cannot be verified as accurate (confidence 2) [9A638311], AccurateRip returned [5196C608]
Track 8 not present in database
Track 9 cannot be verified as accurate (confidence 2) [A551E046], AccurateRip returned [DDA24FD9]
Track 10 cannot be verified as accurate (confidence 2) [695345FA], AccurateRip returned [3266A95E]
Track 11 not present in database
Track 12 cannot be verified as accurate (confidence 2) [E820AE3B], AccurateRip returned [442DA622]
Track 13 cannot be verified as accurate (confidence 2) [52D0F5AF], AccurateRip returned [C338697E]

11 track(s) could not be verified as accurate
2 track(s) not present in the AccurateRip database

No tracks could be verified as accurate
You may have a different pressing from the one(s) in the database

End of status report

------------------------------------------------------------------------Exact Audio Copy V0.99 prebeta 3 from 28. July 2007
Exact Audio Copy V0.99 prebeta 3 from 28. July 2007

EAC extraction logfile from 15. July 2008, 15:16

Rino Gaetano / Sotto I Cieli Di Rino (CD2)

Used drive : _NEC DVD_RW ND-3550A Adapter: 5 ID: 0

Read mode : Secure
Utilize accurate stream : Yes
Defeat audio cache : Yes
Make use of C2 pointers : No

Read offset correction : 48
Overread into Lead-In and Lead-Out : No
Fill up missing offset samples with silence : Yes
Delete leading and trailing silent blocks : No
Null samples used in CRC calculations : No
Used interface : Installed external ASPI interface

Used output format : User Defined Encoder
Selected bitrate : 768 kBit/s
Quality : High
Add ID3 tag : No
Command line compressor : C:\Programmi\Exact Audio Copy\FLAC\FLAC.EXE
Additional command line options : -6 -V -T "ARTIST=%a" -T "TITLE=%t" -T "ALBUM=%g" -T "DATE=%y" -T "TRACKNUMBER=%n" -T "GENRE=%m" -T "COMMENT=%e" %s -o %d


TOC of the extracted CD

Track | Start | Length | Start sector | End sector
---------------------------------------------------------
1 | 0:00.00 | 3:53.41 | 0 | 17515
2 | 3:53.41 | 5:38.45 | 17516 | 42910
3 | 9:32.11 | 5:00.20 | 42911 | 65430
4 | 14:32.31 | 2:55.35 | 65431 | 78590
5 | 17:27.66 | 3:38.70 | 78591 | 95010
6 | 21:06.61 | 4:02.58 | 95011 | 113218
7 | 25:09.44 | 4:16.58 | 113219 | 132476
8 | 29:26.27 | 2:56.68 | 132477 | 145744
9 | 32:23.20 | 3:21.68 | 145745 | 160887
10 | 35:45.13 | 3:54.20 | 160888 | 178457
11 | 39:39.33 | 4:43.13 | 178458 | 199695
12 | 44:22.46 | 2:38.48 | 199696 | 211593
13 | 47:01.19 | 4:13.10 | 211594 | 230578


Range status and errors

Selected range

Filename D:\Documents and Settings\salvo.SN116508160310\Documenti\Rino Gaetano - Sotto I Cieli Di Rino (CD2).wav

Peak level 96.2 %
Range quality 100.0 %
Test CRC C8FB74FF
Copy CRC C8FB74FF
Copy OK

No errors occurred


AccurateRip summary

Track 1 cannot be verified as accurate (confidence 2) [1DAF6D12], AccurateRip returned [5B63724F]
Track 2 not present in database
Track 3 cannot be verified as accurate (confidence 2) [944B8A14], AccurateRip returned [9DEFA7B6]
Track 4 not present in database
Track 5 cannot be verified as accurate (confidence 2) [5F78C610], AccurateRip returned [182F79F8]
Track 6 cannot be verified as accurate (confidence 2) [5F544014], AccurateRip returned [8A15E4A7]
Track 7 cannot be verified as accurate (confidence 2) [449170D1], AccurateRip returned [F005FF1F]
Track 8 not present in database
Track 9 cannot be verified as accurate (confidence 2) [44936280], AccurateRip returned [1E5557A7]
Track 10 cannot be verified as accurate (confidence 2) [1AF8D633], AccurateRip returned [FEEAC08D]
Track 11 cannot be verified as accurate (confidence 2) [092D5EE0], AccurateRip returned [A58BE54C]
Track 12 cannot be verified as accurate (confidence 2) [EBCAAB9D], AccurateRip returned [0D481DBE]
Track 13 cannot be verified as accurate (confidence 2) [273C5D6C], AccurateRip returned [D1E644D4]

0 track(s) could not be verified as accurate
3 track(s) not present in the AccurateRip database

No tracks could be verified as accurate
You may have a different pressing from the one(s) in the database

End of status report


[/CODE]


related torrents

Torrent name

health leech seeds Size
 


comments (0)

Main Menu