Electronic

Bombay Lounge 2 cd Flac cuetntvillage scambioetico orgby Ramasutra

  • Download 5x Faster
  • Download torrent
  • Direct Download
  • Rate this torrent +  |  -


Torrent info

Name:Bombay Lounge 2 cd Flac cuetntvillage scambioetico orgby Ramasutra

Total Size: 636.27 MB

Magnet: Magnet Link

Seeds: 2

Leechers: 1

Stream: Watch Online @ Movie4u

Last Updated: 2010-11-20 14:07:08 (Update Now)

Torrent added: 2008-07-17 06:38:40



VPN For Torrents

Torrent Files List


bombay lounge (cd1).log (Size: 636.27 MB) (Files: 16)

 bombay lounge (cd1).log

2.74 KB

 bombay lounge (cd2).log

4.68 KB

 cd 1

  Various - bombay lounge (cd1).cue

1.22 KB

  Various - bombay lounge (cd1).flac

342.49 MB

 cd 2

  arabiant.flac

21.98 MB

  fun-da-mental - mother india.flac

27.06 MB

  love faze (fazin' mix).flac

26.61 MB

  monsoon (sitra mix).flac

35.19 MB

  phoenix (insense mix).flac

35.80 MB

  sambal (bombay dreams mix).flac

24.85 MB

  singha paz.flac

45.77 MB

  undercurrent.flac

32.41 MB

  walking away (key of life mix).flac

18.63 MB

  y2k (tantric mix).flac

24.70 MB

 Image0010.JPG

436.28 KB

 Image0011.JPG

328.08 KB
 

Announce URL: http://tracker.tntvillage.scambioetico.org:2710/announce

Torrent description

[color=purple] by Ramasutra [/color]

[color=green]:::->Cover<-:::[/color]

Bombay Lounge 2 cd Flac cuetntvillage scambioetico orgby Ramasutra preview 0Bombay Lounge 2 cd Flac cuetntvillage scambioetico orgby Ramasutra preview 1

[color=green]:::->Dati Album<-:::[/color]


Autore:
Titolo:
Anno: 200
Genere: chillout /
Etichetta:family
fonte cd /originale /cdda
Cover : Incluse
------------------------------------------------------------------------------------------------------------------------
[color=green]:::->Tracklist<-:::[/color]

Disc: 1
1. Natascha Atlas / Jah Wobble – Alhambra Pt. 1
2. Transglobal Underground – Ancient Dreams of the Sky
3. Loop Guru – Sussan (Sensuala-Version)
4. Space Cadets – Stotinki (Transglobal Underground Mix)
5. Al-Pha X – Mi Corazon (Smokers Mix)
6. Christophe Goze – Show Me the Way
7. Radar – Arabiant
8. Innais – Beautiful Butterfly (Meditation Mix)
9. Blood & Fire – Tabla Rise (Earth Moon Mix)
10. TI.RA – Storms (Addict Mix)

Disc: 2
1. Cheb Basle – Sweet Dreams (My Life Mix)
2. Bagstra P – C’est La Vie (Shining Mix)
3. Bombay Sound System – Nuit (Black on Black Mix)
4. Pepe Sitra – Phoenix (Insense Mix)
5. Soul Orchestra – Y2K (Tantric Mix)
6. DJ Grigori – Singha Paz
7. Mantra – Monsoon (Sitra Mix)
8. Aerial – Love Faze (Fazin’ Mix)
9. Cesare Martinez – Sambal (Bombay Dream Mix)
10. ABX Orchestra – Walking Away (Key of Life Mix)




-----------------------------------------------------------------------------------------------------------------------









[color=green]:::->Dati Tecnici<-:::[/color]

[color=red] Formato : Flac [/color]
Programma usato [Eac]

[CODE]Exact Audio Copy V0.99 prebeta 3 from 28. July 2007

EAC extraction logfile from 4. February 2008, 8:38

Various / bombay lounge (cd1)

Used drive : _NEC DVD_RW ND-3550A Adapter: 5 ID: 0

Read mode : Secure
Utilize accurate stream : Yes
Defeat audio cache : Yes
Make use of C2 pointers : No

Read offset correction : 48
Overread into Lead-In and Lead-Out : No
Fill up missing offset samples with silence : Yes
Delete leading and trailing silent blocks : No
Null samples used in CRC calculations : No
Used interface : Installed external ASPI interface

Used output format : User Defined Encoder
Selected bitrate : 768 kBit/s
Quality : High
Add ID3 tag : No
Command line compressor : C:\Programmi\Exact Audio Copy\FLAC\FLAC.EXE
Additional command line options : -6 -V -T "ARTIST=%a" -T "TITLE=%t" -T "ALBUM=%g" -T "DATE=%y" -T "TRACKNUMBER=%n" -T "GENRE=%m" -T "COMMENT=%e" %s -o %d


TOC of the extracted CD

Track | Start | Length | Start sector | End sector
---------------------------------------------------------
1 | 0:00.00 | 7:13.65 | 0 | 32539
2 | 7:13.65 | 5:04.16 | 32540 | 55355
3 | 12:18.06 | 5:57.69 | 55356 | 82199
4 | 18:16.00 | 5:40.03 | 82200 | 107702
5 | 23:56.03 | 6:26.58 | 107703 | 136710
6 | 30:22.61 | 6:16.43 | 136711 | 164953
7 | 36:39.29 | 6:24.70 | 164954 | 193823
8 | 43:04.24 | 4:29.55 | 193824 | 214053
9 | 47:34.04 | 5:20.23 | 214054 | 238076
10 | 52:54.27 | 5:43.49 | 238077 | 263850


Range status and errors

Selected range

Filename D:\Documents and Settings\salvo.SN116508160310\Documenti\Various - bombay lounge (cd1).wav

Peak level 100.0 %
Range quality 100.0 %
Test CRC 1354EE64
Copy CRC 1354EE64
Copy OK

No errors occurred


AccurateRip summary

Track 1 accurately ripped (confidence 1) [B98E0D8D]
Track 2 accurately ripped (confidence 1) [F2EB11F8]
Track 3 accurately ripped (confidence 1) [70D9CAA6]
Track 4 accurately ripped (confidence 1) [CE13B853]
Track 5 accurately ripped (confidence 1) [23FF6C69]
Track 6 accurately ripped (confidence 1) [37AC1498]
Track 7 accurately ripped (confidence 1) [4FEA26F7]
Track 8 accurately ripped (confidence 1) [F664B187]
Track 9 accurately ripped (confidence 1) [23654E60]
Track 10 accurately ripped (confidence 1) [5E27A672]

All tracks accurately ripped

End of status report

------------------------------------------------------------------------
Exact Audio Copy V0.99 prebeta 3 from 28. July 2007

EAC extraction logfile from 4. February 2008, 14:50

Various / bombay lounge (cd2)

Used drive : _NEC DVD_RW ND-3550A Adapter: 5 ID: 0

Read mode : Secure
Utilize accurate stream : Yes
Defeat audio cache : Yes
Make use of C2 pointers : No

Read offset correction : 48
Overread into Lead-In and Lead-Out : No
Fill up missing offset samples with silence : Yes
Delete leading and trailing silent blocks : No
Null samples used in CRC calculations : No
Used interface : Installed external ASPI interface
Gap handling : Not detected, thus appended to previous track

Used output format : User Defined Encoder
Selected bitrate : 768 kBit/s
Quality : High
Add ID3 tag : No
Command line compressor : C:\Programmi\Exact Audio Copy\FLAC\FLAC.EXE
Additional command line options : -6 -V -T "ARTIST=%a" -T "TITLE=%t" -T "ALBUM=%g" -T "DATE=%y" -T "TRACKNUMBER=%n" -T "GENRE=%m" -T "COMMENT=%e" %s -o %d


TOC of the extracted CD

Track | Start | Length | Start sector | End sector
---------------------------------------------------------
1 | 0:00.00 | 4:54.60 | 0 | 22109
2 | 4:54.60 | 5:19.62 | 22110 | 46096
3 | 10:14.47 | 3:31.53 | 46097 | 61974
4 | 13:46.25 | 5:50.72 | 61975 | 88296
5 | 19:37.22 | 4:32.08 | 88297 | 108704
6 | 24:09.30 | 6:37.39 | 108705 | 138518
7 | 30:46.69 | 5:13.35 | 138519 | 162028
8 | 36:00.29 | 4:46.70 | 162029 | 183548
9 | 40:47.24 | 4:42.34 | 183549 | 204732
10 | 45:29.58 | 4:34.53 | 204733 | 225335


Track 1

Filename D:\Documents and Settings\salvo.SN116508160310\Documenti\mother india.wav

Peak level 99.8 %
Track quality 100.0 %
Test CRC 565LPAC6
Copy CRC 565LPAC6
Accurately ripped (confidence 1) [TR589D4E]
Copy OK

Track 2

Filename D:\Documents and Settings\salvo.SN116508160310\Documenti\undercurrent.wav

Peak level 98.8 %
Track quality 100.0 %
Test CRC 302FACC5
Copy CRC 302FACC5
Accurately ripped (confidence 1) [AC208C9B]
Copy OK

Track 3

Filename D:\Documents and Settings\salvo.SN116508160310\Documenti\arabiant.wav

Peak level 91.2 %
Track quality 100.0 %
Test CRC C5BC5F88
Copy CRC C5BC5F88
Accurately ripped (confidence 1) [7B036E96]
Copy OK

Track 4

Filename D:\Documents and Settings\salvo.SN116508160310\Documenti\phoenix (insense mix).wav

Peak level 83.1 %
Track quality 99.9 %
Test CRC 0FC648EB
Copy CRC 0FC648EB
Accurately ripped (confidence 1) [9FB5DA26]
Copy OK

Track 5

Filename D:\Documents and Settings\salvo.SN116508160310\Documenti\y2k (tantric mix).wav

Peak level 94.4 %
Track quality 100.0 %
Test CRC DAE9F2AB
Copy CRC DAE9F2AB
Accurately ripped (confidence 1) [71E71533]
Copy OK

Track 6

Filename D:\Documents and Settings\salvo.SN116508160310\Documenti\singha paz.wav

Peak level 65.7 %
Track quality 100.0 %
Test CRC 8E28C98A
Copy CRC 8E28C98A
Accurately ripped (confidence 1) [C64E8F48]
Copy OK

Track 7

Filename D:\Documents and Settings\salvo.SN116508160310\Documenti\monsoon (sitra mix).wav

Peak level 87.2 %
Track quality 99.9 %
Test CRC F8622864
Copy CRC F8622864
Accurately ripped (confidence 1) [A38AB9F6]
Copy OK

Track 8

Filename D:\Documents and Settings\salvo.SN116508160310\Documenti\love faze (fazin' mix).wav

Peak level 94.4 %
Track quality 100.0 %
Test CRC 29CC5744
Copy CRC 29CC5744
Accurately ripped (confidence 1) [192283F1]
Copy OK

Track 9

Filename D:\Documents and Settings\salvo.SN116508160310\Documenti\sambal (bombay dreams mix).wav

Peak level 90.8 %
Track quality 100.0 %
Test CRC 17188F09
Copy CRC 17188F09
Accurately ripped (confidence 1) [D9EC6895]
Copy OK

Track 10

Filename D:\Documents and Settings\salvo.SN116508160310\Documenti\walking away (key of life mix).wav

Peak level 93.9 %
Track quality 100.0 %
Test CRC 3DF1A07A
Copy CRC 3DF1A07A
Accurately ripped (confidence 1) [45BDFC81]
Copy OK


All tracks accurately ripped

No errors occurred

End of status report


[/CODE]

related torrents

Torrent name

health leech seeds Size
 


comments (0)

Main Menu