Action

Hancock2008TeleSyncEng c0fFe3

  • Download 5x Faster
  • Download torrent
  • Direct Download
  • Rate this torrent +  |  -
Hancock2008TeleSyncEng c0fFe3

Anonymous and free Direct Download 300GB+


Torrent info

Name:Hancock2008TeleSyncEng c0fFe3

Total Size: 678.48 MB

Magnet: Magnet Link

Seeds: 0

Leechers: 0

Stream: Watch Online @ Movie4u

Last Updated: 2010-08-03 15:29:43 (Update Now)

Torrent added: 2008-07-16 12:39:41



VPN For Torrents

Torrent Files List


han-cff.part01.rar (Size: 678.48 MB) (Files: 23)

 han-cff.part01.rar

30.52 MB

 han-cff.part02.rar

30.52 MB

 han-cff.part03.rar

30.52 MB

 han-cff.part04.rar

30.52 MB

 han-cff.part05.rar

30.52 MB

 han-cff.part06.rar

30.52 MB

 han-cff.part07.rar

30.52 MB

 han-cff.part08.rar

30.52 MB

 han-cff.part09.rar

30.52 MB

 han-cff.part10.rar

30.52 MB

 han-cff.part11.rar

30.52 MB

 han-cff.part12.rar

30.52 MB

 han-cff.part13.rar

30.52 MB

 han-cff.part14.rar

30.52 MB

 han-cff.part15.rar

30.52 MB

 han-cff.part16.rar

30.52 MB

 han-cff.part17.rar

30.52 MB

 han-cff.part18.rar

30.52 MB

 han-cff.part19.rar

30.52 MB

 han-cff.part20.rar

30.52 MB

 han-cff.part21.rar

30.52 MB

 han-cff.part22.rar

30.52 MB

 han-cff.part23.rar

7.10 MB
 

Announce URL: http://tpb.tracker.thepiratebay.org/announce

Torrent description

Hancock[2008]TeleSync[Eng]-c0fFe3
_________________________________________________

General
Complete name : Hancock[2008]TeleSync[Eng]
Format : AVI
Format/Info : Audio Video Interleave
File size : 699 MiB
Duration : 1h 25mn
Overal bit rate : 1143 Kbps
Movie name : hc-plube
Writing application : PLUBE
Comment : PLUBE.COM
IAS1 : ???

Video
Format : MPEG-4 Visual
Format profile : Streaming [email protected]
Format settings, BVOP : Yes
Format settings, QPel : No
Format settings, GMC : No warppoints
Format settings, Matrix : Custom
Codec ID : XVID
Codec ID/Hint : XviD
Duration : 1h 25mn
Bit rate : 1018 Kbps
Width : 480 pixels
Height : 336 pixels
Display aspect ratio : 1.429
Frame rate : 29.970 fps
Resolution : 8 bits
Colorimetry : 4:2:0
Scan type : Progressive
Bits/(Pixel*Frame) : 0.211
Stream size : 622 MiB
Writing library : XviD 1.2.0.dev47 (UTC 2006-11-01)

Audio
Format : MPEG Audio
Format version : Version 1
Format profile : Layer 3
Codec ID : 55
Codec ID/Hint : MP3
Duration : 1h 25mn
Bit rate mode : Variable
Bit rate : 111 Kbps
Minimum bit rate : 128 Kbps
Channel(s) : 2 channels
Sampling rate : 48.0 KHz
Resolution : 16 bits
Stream size : 67.9 MiB
Writing library : LAME3.97
Encoding settings : ABR
Language : english

Hancock2008TeleSyncEng c0fFe3 preview 0

Hancock2008TeleSyncEng c0fFe3 preview 1

Hancock2008TeleSyncEng c0fFe3 preview 2

Hancock2008TeleSyncEng c0fFe3 preview 3

Hancock2008TeleSyncEng c0fFe3 preview 4

Hancock2008TeleSyncEng c0fFe3 preview 5

Hancock2008TeleSyncEng c0fFe3 preview 6

related torrents

Torrent name

health leech seeds Size
 


comments (0)

Main Menu