Metal

Tool Lateralus 2001 (original cd, USA EAN:614223116), APE (image+ cue), lossless

  • Download 5x Faster
  • Download torrent
  • Direct Download
  • Rate this torrent +  |  -

Torrent info

Name:Tool Lateralus 2001 (original cd, USA EAN:614223116), APE (image+ cue), lossless

Total Size: 438.83 MB

Magnet: Magnet Link

Seeds: 0

Leechers: 0

Stream: Watch Full Movie @ Movie4u

Last Updated: 2017-02-05 23:35:51 (Update Now)

Torrent added: 2009-08-18 00:00:00



VPN For Torrents

Torrent Files List


folder.jpg (Size: 438.83 MB) (Files: 10)

 folder.jpg

25.33 KB

 LATERALUS.JPG

100.69 KB

 Lateralus.log

2.29 KB

 Tool - Lateralus.ape

437.91 MB

 Tool - Lateralus.cue

1.49 KB

 [AllCDCovers]_tool_lateralus_2001_retail_cd-back.jpg

188.11 KB

 [AllCDCovers]_tool_lateralus_2001_retail_cd-front.jpg

245.58 KB

 [AllCDCovers]_tool_lateralus_2006_retail_cd-back.jpg

153.96 KB

 [AllCDCovers]_tool_lateralus_2006_retail_cd-cd.jpg

151.46 KB

 [AllCDCovers]_tool_lateralus_2006_retail_cd-front.jpg

72.72 KB
 

tracker

leech seeds
 

Torrent description

(Progressive Metal) Tool - Lateralus - 2001 (original cd, USA EAN:614223116), APE (image+.cue), lossless

pic
????: Progressive Metal

??? ??????? ?????: 2001

????????????? ?????: USA

????? ?????: APE

??? ????: image+.cue

??????? ?????: lossless

?????????????????: 78:56

????????:

1 The Grudge (Carey/C/J/K) 8:36

2 Eon Blue Apocalypse (Carey/C/J/K) 1:04

3 The Patient (Carey/C/J/K) 7:13

4 Mantra (Carey/C/J/K) 1:12

5 Schism (Carey/C/J/K) 6:47

6 Parabol (Carey/C/J/K) 3:04

7 Parabola (Carey/C/J/K) 6:03

8 Ticks & Leeches (Carey/C/J/K) 8:10

9 Lateralus (Carey/C/J/K) 9:24

10 Disposition (Carey/C/J/K) 4:46

11 Reflection (Carey/C/J/K) 11:07

12 Triad (Carey/C/J/K) 8:46

13 Faaip de Oiad (Carey/C/J/K) 2:39

Exact Audio Copy V0.99 prebeta 4 from 23. January 2008

????? EAC ?? ??????????, ??????????? 16. ???? 2008, 15:32

Tool / Lateralus

????????: Optiarc DVD RW AD-7173A Adapter: 1 ID: 0

????? ?????? : ?????????????

????????????? ??????? ?????? : ??

?????????? ???? ????? : ??

????????????? ?????????? C2 : ???

????????? ???????? ??? ?????? : 48

??????????? ?????? ??????? Lead-in ? Lead-out : ???

?????????? ??????????? ??????? ??????? : ??

???????? ?????? ? ??????? ? ?????? ? ????? : ???

??? ??????????? CRC ?????????????? ??????? ?????? : ???

????????? : ?????????? Win32-????????? ??? Win NT/2000

???????? ?????? : ?????????? WAV-????????

?????? ??????? : 44.100 ??; 16 ???; ??????

TOC ???????????? CD

???? | ????? | ???????????? | ????????? ?????? | ???????? ??????

---------------------------------------------------------------------

1 | 0:00.00 | 8:36.20 | 0 | 38719

2 | 8:36.20 | 1:04.55 | 38720 | 43574

3 | 9:41.00 | 7:13.72 | 43575 | 76121

4 | 16:54.72 | 1:12.45 | 76122 | 81566

5 | 18:07.42 | 6:47.43 | 81567 | 112134

6 | 24:55.10 | 3:04.32 | 112135 | 125966

7 | 27:59.42 | 6:03.40 | 125967 | 153231

8 | 34:03.07 | 8:10.03 | 153232 | 189984

9 | 42:13.10 | 9:24.12 | 189985 | 232296

10 | 51:37.22 | 4:46.05 | 232297 | 253751

11 | 56:23.27 | 11:07.53 | 253752 | 303829

12 | 67:31.05 | 8:46.40 | 303830 | 343319

13 | 76:17.45 | 2:39.00 | 343320 | 355244

?????????????? ????????? ?????????? ? ????????? ?? ???????

????????? ????????

??? ????? C:\Documents and Settings\cree.HOME-BE7E4F25E9\??????? ????\Lateralus\Tool - Lateralus.wav

??????? ??????? 100.0 %

???????? ????????? 99.9 %

CRC ????? 44AED297

CRC ????? 44AED297

???????????... OK

?????? ?? ?????????

????? ??????

related torrents

Torrent name

health leech seeds Size
 


comments (0)

Main Menu

 

script data-cfasync="false" src="//d2ghscazvn398x.cloudfront.net/?cshgd=690275">