Action

Doomsday (2008) 1337x By {Noir}

  • Download 5x Faster
  • Download torrent
  • Direct Download
  • Rate this torrent +  |  -
Doomsday (2008) 1337x By {Noir}

Free and Direct Download with Usenet 300GB+ free


Torrent info

Name:Doomsday (2008) 1337x By {Noir}

Total Size: 785.74 MB

Magnet: Magnet Link

Seeds: 1

Leechers: 11

Stream: Watch Online @ Movie4u

Last Updated: 2010-07-30 19:23:05 (Update Now)

Torrent added: 2008-07-16 06:44:38




Torrent Files List


1337x.Org.txt (Size: 785.74 MB) (Files: 4)

 1337x.Org.txt

0.03 KB

 Doomsday (2008) [1337x] By {Noir}.avi

785.74 MB

 Noir.nfo

4.80 KB

 Torrent_downloaded_from_Demonoid.com.txt

0.05 KB
 

Announce URL: http://genesis.1337x.org:1337/announce

Torrent description

Doomsday (2008) 1337x By {Noir} preview 0

Screenshots

Doomsday (2008) 1337x By {Noir} preview 1

Doomsday (2008) 1337x By {Noir} preview 2

Doomsday (2008) 1337x By {Noir} preview 3

Doomsday (2008) 1337x By {Noir} preview 4

Doomsday (2008) 1337x By {Noir} preview 5
_____________________________________________________________________________
▓▓▓▓▓▓
▓█████▓ ▓▓▓▓
▓██████▓ ▓▓███▓
▓▓██████▓ ▓████▓▓▓▓▓▓
▓██████▓ ▓██▒█▓▓███▓▓ ▓▓▓▓▓▓▓▓▓▓▓▓▓
▓██▒████▓ ▓██▒█▓██████▓▓███▓███▓███▓▓
▓██▒▒████▓ ▓██▒███▒▒▒▒██▓████████████▓
▓██▒▒▒▒███▓ ▓██▒██▒▒▒▒▒▒███▒▒▒██▒█▒▒▒██▓▓
▓██▒▒██▒▒██▓▓██▒██▒▒█▒▒▒▒███████▒▒▒▒▒▒██▓
▓██▒▒███▒▒██▓██▒██▒█▓█▒▒▒██▒▒▒██▒▒██▒▒▒█▓
▓██▒▒████▒▒████▒██▒█▓█▒▒▒██▒▒▒██▒▒███▒██▓
▓██▒▒█▓███▒▒███▒██▒▒█▒▒▒▒██▒▒▒██▒▒██████▓
▓██▒▒█▓▓███▒▒██▒██▒▒▒▒▒▒▒██▒▒▒██▒▒██▓███▓
▓▓██▒▒█▓ ▓███▒▒█▒██▒▒▒▒▒▒▒███████▒▒██▓▓▓▓▓
▓▓███▒▒█▓ ▓███▒▒▒███▒▒▒▒▒██▓▓▓▓██▒▒██▓
▓████▒▒█▓ ▓███▒▒█████████▓▓ ▓██▒▒██▓
▓████▒▒█▓ ▓███▒█▓██████▓▓▓ ▓██████▓
▓███████▓ ▓▓████▓▓▓▓▓▓▓▓ ▓▓▓▓▓▓▓▓
▓▓▓▓▓▓▓▓▓ ▓▓▓▓▓
_____________________________________________________________________________



*******************************************************************************
Doomsday (2008)
*******************************************************************************

-------------------------------------------------------------------------------
General Information
-------------------------------------------------------------------------------
Type : Movie
Format : AVI
Format/Info : Audio Video Interleave
File size : 786 MiB
Duration : 1h 45mn
Genre : Action | Drama | Sci-Fi | Thriller
IMDB Link : http://www.imdb.com/title/tt0483607/
Rating : 6.3/10
Source : Dvd NTSC

Video
Format : MPEG-4 Visual
Format profile : Streaming [email protected]
Format settings, BVOP : Yes
Format settings, QPel : No
Format settings, GMC : No warppoints
Format settings, Matrix : Default
Muxing mode : Packet Bitstream
Codec ID : XVID
Codec ID/Hint : XviD
Duration : 1h 45mn
Bit rate : 906 Kbps
Width : 608 pixels
Height : 256 pixels
Display aspect ratio : 2.35
Frame rate : 23.976 fps
Resolution : 8 bits
Colorimetry : 4:2:0
Scan type : Progressive
Bits/(Pixel*Frame) : 0.243
Stream size : 682 MiB (87%)

Audio
Format : MPEG Audio
Format version : Version 1
Format profile : Layer 3
Codec ID : 55
Codec ID/Hint : MP3
Duration : 1h 45mn
Bit rate mode : Constant
Bit rate : 128 Kbps
Minimum bit rate : 128 Kbps
Channel(s) : 2 channels
Sampling rate : 48.0 KHz
Resolution : 16 bits
Stream size : 96.4 MiB (12%)
Alignment : Aligned on interleaves
Interleave, duration : 42 ms (1.00 video frame)
Interleave, preload duration : 504 ms
Writing library : LAME3.97
Encoding settings : CBR
-------------------------------------------------------------------------------
Description
-------------------------------------------------------------------------------
A lethal virus spreads throughout the British isles,infecting millions and
killing hundreds of thousands. To contain the threat, acting authorities
brutally quarantine the country as it succumbs to fear and chaos. The
quarantine is successful. Three decades later, the Reaper virus violently
resurfaces in a major city. An elite group of specialists, including Eden
Sinclair, is urgently dispatched into the still-quarantined country to
retrieve a cure by any means necessary. Shut off from the rest of the world,
the unit must battle through a landscape that has become a waking nightmare.
-------------------------------------------------------------------------------
Post Information
-------------------------------------------------------------------------------
Posted by............: Noir
Posted on............: 7/16/2008

Doomsday (2008) 1337x By {Noir} preview 6

Doomsday (2008) 1337x By {Noir} preview 7

Doomsday (2008) 1337x By {Noir} preview 8

related torrents

Torrent name

health leech seeds Size
 

comments (0)

Main Menu