Other

01 BBC Planeta Terra De Polo a Polo avi

  • Download 5x Faster
  • Download torrent
  • Direct Download
  • Rate this torrent +  |  -
01 BBC Planeta Terra De Polo a Polo avi

Anonymous and Free Direct Download 300GB+


Torrent info

Name:01 BBC Planeta Terra De Polo a Polo avi

Total Size: 2.08 GB

Magnet: Magnet Link

Seeds: 0

Leechers: 0

Stream: Watch Online @ Movie4u

Last Updated: 2015-09-05 05:04:46 (Update Now)

Torrent added: 2008-07-16 00:38:55



VPN For Torrents

Torrent Files List


01 BBC Planeta Terra - De Polo a Polo.avi (Size: 2.08 GB) (Files: 1)

 01 BBC Planeta Terra - De Polo a Polo.avi

2.08 GB
 

tracker

leech seeds
 

Torrent description

Primeiro episódio da série em HDTV totalmente dublada em português Brasil.
Informações Técnicas:
General
Complete name : I:\Arquivos Compartilhados Torrent\01 BBC Planeta Terra - De Polo a Polo.avi
Format : AVI
Format/Info : Audio Video Interleave
File size : 2.08 GiB
Duration : 48mn 12s
Overal bit rate : 6171 Kbps

Video
Format : MPEG-4 Visual
Format settings, BVOP : Yes
Format settings, QPel : No
Format settings, GMC : 0 warppoint
Format settings, Matrix : Default
Codec ID : DX50
Codec ID/Hint : DivX 5
Duration : 48mn 12s
Bit rate : 5970 Kbps
Width : 1280 pixels
Height : 720 pixels
Display aspect ratio : 16/9
Frame rate : 25.000 fps
Resolution : 8 bits
Colorimetry : 4:2:0
Scan type : Progressive
Bits/(Pixel*Frame) : 0.259
Stream size : 2.01 GiB
Writing library : DivX 6.2.5
Writing library/Date : UTC 2006-07

Audio
Format : MPEG Audio
Format version : Version 1 / Layer 3
Codec ID : 55
Codec ID/Hint : MP3
Duration : 48mn 11s
Bit rate mode : CBR
Bit rate : 192 Kbps
Channel(s) : 2 channels
Sampling rate : 48.0 KHz
Resolution : 16 bits
Stream size : 66.2 MiB

related torrents

Torrent name

health leech seeds Size

BBC Planeta Terra 10 ao 11

0 1 696.42 MB 0
 


comments (0)

Main Menu