Thriller

Body Parts (1994) 1337x By {Noir}

  • Download 5x Faster
  • Download torrent
  • Direct Download
  • Rate this torrent +  |  -
Body Parts (1994) 1337x By {Noir}

Free and Direct Download with Usenet 300GB+ free


Torrent info

Name:Body Parts (1994) 1337x By {Noir}

Total Size: 785.99 MB

Magnet: Magnet Link

Seeds: 1

Leechers: 1

Stream: Watch Online @ Movie4u

Last Updated: 0000-00-00 00:00:00 (Update Now)

Torrent added: 2008-07-15 15:58:36




Torrent Files List


1337x.Org.txt (Size: 785.99 MB) (Files: 4)

 1337x.Org.txt

0.03 KB

 Body Parts (1994) [1337x] By {Noir}.avi

785.99 MB

 Noir.nfo

4.81 KB

 Torrent_downloaded_from_Demonoid.com.txt

0.05 KB
 

Announce URL: http://genesis.1337x.org:1337/announce

Torrent description

Body Parts (1994) 1337x By {Noir} preview 0

Screenshots

Body Parts (1994) 1337x By {Noir} preview 1

Body Parts (1994) 1337x By {Noir} preview 2

Body Parts (1994) 1337x By {Noir} preview 3

Body Parts (1994) 1337x By {Noir} preview 4 _____________________________________________________________________________
▓▓▓▓▓▓
▓█████▓ ▓▓▓▓
▓██████▓ ▓▓███▓
▓▓██████▓ ▓████▓▓▓▓▓▓
▓██████▓ ▓██▒█▓▓███▓▓ ▓▓▓▓▓▓▓▓▓▓▓▓▓
▓██▒████▓ ▓██▒█▓██████▓▓███▓███▓███▓▓
▓██▒▒████▓ ▓██▒███▒▒▒▒██▓████████████▓
▓██▒▒▒▒███▓ ▓██▒██▒▒▒▒▒▒███▒▒▒██▒█▒▒▒██▓▓
▓██▒▒██▒▒██▓▓██▒██▒▒█▒▒▒▒███████▒▒▒▒▒▒██▓
▓██▒▒███▒▒██▓██▒██▒█▓█▒▒▒██▒▒▒██▒▒██▒▒▒█▓
▓██▒▒████▒▒████▒██▒█▓█▒▒▒██▒▒▒██▒▒███▒██▓
▓██▒▒█▓███▒▒███▒██▒▒█▒▒▒▒██▒▒▒██▒▒██████▓
▓██▒▒█▓▓███▒▒██▒██▒▒▒▒▒▒▒██▒▒▒██▒▒██▓███▓
▓▓██▒▒█▓ ▓███▒▒█▒██▒▒▒▒▒▒▒███████▒▒██▓▓▓▓▓
▓▓███▒▒█▓ ▓███▒▒▒███▒▒▒▒▒██▓▓▓▓██▒▒██▓
▓████▒▒█▓ ▓███▒▒█████████▓▓ ▓██▒▒██▓
▓████▒▒█▓ ▓███▒█▓██████▓▓▓ ▓██████▓
▓███████▓ ▓▓████▓▓▓▓▓▓▓▓ ▓▓▓▓▓▓▓▓
▓▓▓▓▓▓▓▓▓ ▓▓▓▓▓
_____________________________________________________________________________



*******************************************************************************
Body Parts (1994)
*******************************************************************************

-------------------------------------------------------------------------------
General Information
-------------------------------------------------------------------------------
Type : Movie
Format : AVI
Format/Info : Audio Video Interleave
File size : 786 MiB
Duration : 1h 21mn
Genre : Thriller
IMDB Link : http://www.imdb.com/title/tt0200497/
Rating : 4.1/10
Source : Dvd NTSC

Video
Format : MPEG-4 Visual
Format profile : Streaming [email protected]
Format settings, BVOP : Yes
Format settings, QPel : No
Format settings, GMC : No warppoints
Format settings, Matrix : Default
Muxing mode : Packet Bitstream
Codec ID : XVID
Codec ID/Hint : XviD
Duration : 1h 21mn
Bit rate : 1205 Kbps
Width : 560 pixels
Height : 400 pixels
Display aspect ratio : 1.400
Frame rate : 23.976 fps
Resolution : 8 bits
Colorimetry : 4:2:0
Scan type : Progressive
Bits/(Pixel*Frame) : 0.224
Stream size : 706 MiB (90%)

Audio
Format : MPEG Audio
Format version : Version 1
Format profile : Layer 3
Codec ID : 55
Codec ID/Hint : MP3
Duration : 1h 21mn
Bit rate mode : Constant
Bit rate : 128 Kbps
Minimum bit rate : 128 Kbps
Channel(s) : 2 channels
Sampling rate : 48.0 KHz
Resolution : 16 bits
Stream size : 75.0 MiB (10%)
Alignment : Aligned on interleaves
Interleave, duration : 42 ms (1.00 video frame)
Interleave, preload duration : 504 ms
Writing library : LAME3.97
Encoding settings : CBR
-------------------------------------------------------------------------------
Description
-------------------------------------------------------------------------------
A Dead Hooker\'s Guide To The Galaxy!

Strippers at Club Body Parts begin turning up dead with missing organs.
Police begin questioning the various employees and patrons that frequent
the club. What follows is some of the funniest scenes since Troma\'s Cry
Uncle! But that\'s not all, folks! Body Parts also features enough sex to
appease the dirty old man in all of us. Not to mention lovely scenes of
extreme violence, making Body Parts the guiltiest pleasure you will have
the pleasure of viewing. Plus, as an added comic bonus, Body Parts features
the most hysterical scene involving a dog since Pink Flamingos!
-------------------------------------------------------------------------------
Post Information
-------------------------------------------------------------------------------
Posted by............: Noir
Posted on............: 7/15/2008

Body Parts (1994) 1337x By {Noir} preview 5


Body Parts (1994) 1337x By {Noir} preview 6

Body Parts (1994) 1337x By {Noir} preview 7

related torrents

Torrent name

health leech seeds Size
 

comments (0)

Main Menu