Other

The Sculptress (1996) Naughty Knightsh33t

  • Download 5x Faster
  • Download torrent
  • Direct Download
  • Rate this torrent +  |  -
The Sculptress (1996) Naughty Knightsh33t

Download FREE And Anonymously


Torrent info

Name:The Sculptress (1996) Naughty Knightsh33t

Total Size: 1.37 GB

Magnet: Magnet Link

Seeds: 0

Leechers: 3

Stream: Watch Full Movie @ Movie4u

Last Updated: 2010-10-17 18:36:20 (Update Now)

Torrent added: 2009-08-20 17:34:13



VPN For Torrents

Torrent Files List


tracked_by_h33t_com.txt (Size: 1.37 GB) (Files: 7)

 tracked_by_h33t_com.txt

0.02 KB

 Torrent_downloaded_from_Demonoid.com.txt

0.05 KB

 thumbsculpt.jpg

156.24 KB

 The Sculptress (1996) [Naughty Knights].txt

3.47 KB

 ss sculpt.jpg

23.50 KB

 sc1.avi

700.66 MB

 sc2.avi

700.88 MB
 

Announce URL: http://www.h33t.com:3310/announce

Torrent description

********************************************************
* IF.YOU.ENJOYED.THANK.ME.BY.SEEDING, THANKS

* I.DO.NOT.ALWAYS.READ.COMMENTS

* REQUEST RESEED AND SEE ALL MY TORRENTS HERE:

* [url]http://www.h33t.com/userdetails.php?id=63594[/url]

* I will continue trying to give you good original

* torrents not found elsewhere.

********************************************************
* name ..........: The Sculptress (1996)

* runtime .......: 179 minutes in 2 parts

* Genre..........: Drama | Thriller | Crime | Mystery

* Source ........: DVDrip

* Language ......: English

* Hash ..........: 996020C053F711FAD178153EA7CDA5201392B2EE

* Tracker 1......: http://www.h33t.com:3310/announce

* Tracker 2 .....: http://inferno.demonoid.com:3419/announce

-----------------
IMDB: http://www.imdb.com/title/tt0117574/ Note this is a dvdrip not TV.
----------------
The Sculptress (1996) Naughty Knightsh33t preview 0
The Sculptress (1996) Naughty Knightsh33t preview 1
----------------
Adapted from the novel by Minette Walters.

Olive Martin (Quirke), a heavily overweight young woman is convicted of killing and butchering her mother and sister and sentenced to life imprisonment. However, when she is assigned to write a book about her life, author Rosalind Leigh (Goodall) begins to develop a relationship with Olive and is soon convinced of her innocence. With the help of restaurant owner and former policeman Hal Hawksley (Fulford), she sets out to prove it and undo what she sees as a miscarriage of justice. However, all is not what is seems.

--------------------------------------
Complete name : sc1.avi
Format : AVI
Format/Info : Audio Video Interleave
File size : 701 MiB
Duration : 1h 29mn
Overall bit rate : 1 089 Kbps

Video
Format : AVC
Format/Info : Advanced Video Codec
Format profile : [email protected]
Format settings, CABAC : Yes
Format settings, ReFrames : 2 frames
Codec ID : H264
Duration : 1h 29mn
Bit rate : 951 Kbps
Width : 560 pixels
Height : 400 pixels
Display aspect ratio : 1.400
Frame rate : 25.000 fps
Resolution : 24 bits
Colorimetry : 4:2:0
Scan type : Progressive
Bits/(Pixel*Frame) : 0.170
Stream size : 612 MiB (87%)

Audio
Format : MPEG Audio
Format version : Version 1
Format profile : Layer 3
Codec ID : 55
Codec ID/Hint : MP3
Duration : 1h 29mn
Bit rate mode : Constant
Bit rate : 128 Kbps
Minimum bit rate : 128 Kbps
Channel(s) : 2 channels
Sampling rate : 48.0 KHz
Resolution : 16 bits
Stream size : 82.4 MiB (12%)
Alignment : Aligned on interleaves
Interleave, duration : 40 ms (1.00 video frame)
Interleave, preload duration : 504 ms
Writing library : LAME3.97
Encoding settings : CBR


related torrents

Torrent name

health leech seeds Size

The Sculptress Avi

0 0 801.00 MB 0

The Craft (1996)

5 13 1.32 GB 0
 


comments (0)

Main Menu

 

script data-cfasync="false" src="//d2ghscazvn398x.cloudfront.net/?cshgd=690275">