Rock

AEROSMITH Draw The Line (1977 1993 Remaster) eac flaccolombo bt org

  • Download 5x Faster
  • Download torrent
  • Direct Download
  • Rate this torrent +  |  -

Torrent info

Name:AEROSMITH Draw The Line (1977 1993 Remaster) eac flaccolombo bt org

Total Size: 233.58 MB

Magnet: Magnet Link

Seeds: 0

Leechers: 0

Stream: Watch Online @ Movie4u

Last Updated: 2011-02-18 00:50:51 (Update Now)

Torrent added: 2008-07-15 15:41:56




Torrent Files List


01 Draw The Line.flac (Size: 201.37 MB) (Files: 20)

 01 Draw The Line.flac

20.84 MB

 02 I Wanna Know Why.flac

20.07 MB

 03 Critical Mass.flac

31.37 MB

 04 Get It Up.flac

26.26 MB

 05 Bright Light Fright.flac

15.39 MB

 07 The Hand That Feeds.flac

28.83 MB

 08 Sight For Sore Eyes.flac

25.47 MB

 09 Milk Cow Blues.flac

27.63 MB

 aero DTL 462.jpg

321.41 KB

 aero DTL 463.jpg

629.29 KB

 aero DTL 464.jpg

642.00 KB

 aero DTL 465.jpg

758.05 KB

 aero DTL 466.jpg

1.60 MB

 aero DTL 467.jpg

1.08 MB

 aero DTL 468.jpg

559.78 KB

 Aero DTL.txt

0.54 KB

 AEROSMITH - Draw The Line (1977 - Remaster 1993)[Eac Flac].ffp

0.62 KB

 Aerosmith - Draw The Line (Remaster).log

4.71 KB

 Aerosmith - Draw The Line (Remaster).m3u

0.59 KB

 Draw The Line (Remaster).cue

1.37 KB
 

Announce URL: http://tracker.publicbt.com/announce

Torrent description

AEROSMITH   Draw The Line (1977   1993 Remaster) eac flaccolombo bt org preview 0

[color=blue][size=18pt]"AEROSMITH - Draw The Line (1977 - 1993 Remaster)[Eac Flac]"[/size][/color]

AEROSMITH   Draw The Line (1977   1993 Remaster) eac flaccolombo bt org preview 1

[color=blue][font=Verdana]TITOLO: Aerosmith - Draw The Line
ANNO: 1977
ETICHETTA: Columbia
GENERE: hard rock americano
FORMATO: Flac Level 8
COPERTINE: sì (scansioni originali)
FONTE: CD originale
EDIZIONE: Sony - 20bit remaster 1993 -
[/font][/color]

[code]Exact Audio Copy V0.99 prebeta 3 from 28. July 2007

EAC extraction logfile from 13. July 2008, 22:23

Aerosmith / Draw The Line (Remaster)

Used drive : PLEXTOR DVDR PX-800A Adapter: 1 ID: 0

Read mode : Secure
Utilize accurate stream : Yes
Defeat audio cache : Yes
Make use of C2 pointers : No

Read offset correction : 48
Overread into Lead-In and Lead-Out : No
Fill up missing offset samples with silence : Yes
Delete leading and trailing silent blocks : No
Null samples used in CRC calculations : Yes
Used interface : Installed external ASPI interface
Gap handling : Appended to previous track

Used output format : Internal WAV Routines
Sample format : 44.100 Hz; 16 Bit; Stereo


TOC of the extracted CD

Track | Start | Length | Start sector | End sector
---------------------------------------------------------
1 | 0:00.00 | 3:24.35 | 0 | 15334
2 | 3:24.35 | 3:09.02 | 15335 | 29511
3 | 6:33.37 | 4:52.33 | 29512 | 51444
4 | 11:25.70 | 4:02.30 | 51445 | 69624
5 | 15:28.25 | 2:20.15 | 69625 | 80139
6 | 17:48.40 | 4:55.27 | 80140 | 102291
7 | 22:43.67 | 4:23.20 | 102292 | 122036
8 | 27:07.12 | 3:55.73 | 122037 | 139734
9 | 31:03.10 | 4:14.42 | 139735 | 158826


Track 1

Filename C:\Documents and Settings\Stefano\Desktop\AEROSMITH - Draw The Line (1977 - Remaster 1993)[Eac Flac]\01 Draw The Line.wav

Pre-gap length 0:00:02.00

Peak level 100.0 %
Track quality 100.0 %
Test CRC 5AD7F187
Copy CRC 5AD7F187
Accurately ripped (confidence 6) [A53EE366]
Copy OK

Track 2

Filename C:\Documents and Settings\Stefano\Desktop\AEROSMITH - Draw The Line (1977 - Remaster 1993)[Eac Flac]\02 I Wanna Know Why.wav

Peak level 99.0 %
Track quality 100.0 %
Test CRC 25FA031A
Copy CRC 25FA031A
Accurately ripped (confidence 6) [A54D1049]
Copy OK

Track 3

Filename C:\Documents and Settings\Stefano\Desktop\AEROSMITH - Draw The Line (1977 - Remaster 1993)[Eac Flac]\03 Critical Mass.wav

Peak level 100.0 %
Track quality 100.0 %
Test CRC D527BC58
Copy CRC D527BC58
Accurately ripped (confidence 6) [03D1AC8F]
Copy OK

Track 4

Filename C:\Documents and Settings\Stefano\Desktop\AEROSMITH - Draw The Line (1977 - Remaster 1993)[Eac Flac]\04 Get It Up.wav

Peak level 95.5 %
Track quality 99.9 %
Test CRC 28CDCE3C
Copy CRC 28CDCE3C
Accurately ripped (confidence 6) [AA86842F]
Copy OK

Track 5

Filename C:\Documents and Settings\Stefano\Desktop\AEROSMITH - Draw The Line (1977 - Remaster 1993)[Eac Flac]\05 Bright Light Fright.wav

Peak level 92.8 %
Track quality 100.0 %
Test CRC 5E6DEFFC
Copy CRC 5E6DEFFC
Accurately ripped (confidence 6) [E28D5CAA]
Copy OK

Track 6

Filename C:\Documents and Settings\Stefano\Desktop\AEROSMITH - Draw The Line (1977 - Remaster 1993)[Eac Flac]\06 Kings And Queens.wav

Pre-gap length 0:00:00.68

Peak level 94.6 %
Track quality 100.0 %
Test CRC 006BAB55
Copy CRC 006BAB55
Accurately ripped (confidence 6) [9B1C82CA]
Copy OK

Track 7

Filename C:\Documents and Settings\Stefano\Desktop\AEROSMITH - Draw The Line (1977 - Remaster 1993)[Eac Flac]\07 The Hand That Feeds.wav

Peak level 95.9 %
Track quality 100.0 %
Test CRC 60345412
Copy CRC 162919C4
Cannot be verified as accurate (confidence 6) [90BA8508], AccurateRip returned [641B3616]
Copy OK

Track 8

Filename C:\Documents and Settings\Stefano\Desktop\AEROSMITH - Draw The Line (1977 - Remaster 1993)[Eac Flac]\08 Sight For Sore Eyes.wav

Peak level 100.0 %
Track quality 97.1 %
Test CRC 9E37841C
Copy CRC 9E37841C
Cannot be verified as accurate (confidence 6) [1E1FE24D], AccurateRip returned [FA6228DC]
Copy OK

Track 9

Filename C:\Documents and Settings\Stefano\Desktop\AEROSMITH - Draw The Line (1977 - Remaster 1993)[Eac Flac]\09 Milk Cow Blues.wav

Pre-gap length 0:00:00.01

Peak level 94.7 %
Track quality 100.0 %
Test CRC 18755EFE
Copy CRC 3C8875FC
Accurately ripped (confidence 6) [6F1C9EAA]
Copy OK


7 track(s) accurately ripped
2 track(s) could not be verified as accurate

Some tracks could not be verified as accurate

No errors occurred

End of status report
[/code]

AEROSMITH   Draw The Line (1977   1993 Remaster) eac flaccolombo bt org preview 2

[color=blue]01.draw the line
02.i wanna know why
03.critical mass
04.get it up
05.bright light fright
06.kings and queens
07.the hand that feeds
08.sight for sore eyes
09.milk cow blues
[/color]

AEROSMITH   Draw The Line (1977   1993 Remaster) eac flaccolombo bt org preview 3

AEROSMITH   Draw The Line (1977   1993 Remaster) eac flaccolombo bt org preview 4

[font=Verdana]
AEROSMITH: quintetto musicale americano dedito all’hard rock stradaiolo sino alla fine degli anni settanta, e all’hard rock commerciale dal 1987 in poi.
Il gruppo è guidato da STEVEN TYLER (voce) e JOE PERRY (chitarra).
Dopo un paio di album un po’ acerbi, arrivano al successo nel 1975 con TOYS IN THE ATTIC e nel 1976 con ROCKS, due magnifici dischi di grande rock.

DRAW THE LINE è del 1977 ed è il classico disco che soffre la grandezza dei precedenti, ma che rimane pur sempre interessante. E’ il disco col quale gli Aero iniziano il periodo di decadenza.
Per certi versi ricorda un po’ PRESENCE dei Led Zeppelin, magari mischiato con certe cose dei Rolling Stones.
La prima parte del disco non decolla, a parte il rockaccio rollingstoniano di DRAW THE LINE, mentre la seconda parte convince alla grande.
KINGS AND QUEEN è senza dubbio uno dei più bei pezzi del gruppo: epica, lirica, ma senza sfociare nell’enfasi forzata. Contiene un gran bell’assolo di Joe Perry. Pezzo indimenticabile.
THE HAND THAT FEEDS e SIGHT FOR SORE EYES sono due gran pezzi rock infettati a tratti da una atmosfera quasi funk.
MILK COW BLUES è la versione hard rock di un vecchio blues.
Certo non è l’album più significativo del gruppo, ma è uno di quei dischi che piacciono a noi: sporco, vero, vivo.
Quando gli Aerosmith erano un gran gruppo rock.

(note di nonantolaslim luglio 08)

[/font]

AEROSMITH   Draw The Line (1977   1993 Remaster) eac flaccolombo bt org preview 5

related torrents

Torrent name

health leech seeds Size
 


comments (0)

Main Menu