Pop

Compilation Greatest Hits 70 80 vol 2 flac+cuetnt village scambioetico org by Ramasutra

  • Download 5x Faster
  • Download torrent
  • Direct Download
  • Rate this torrent +  |  -

Torrent info

Name:Compilation Greatest Hits 70 80 vol 2 flac+cuetnt village scambioetico org by Ramasutra

Total Size: 406.27 MB

Magnet: Magnet Link

Seeds: 0

Leechers: 0

Stream: Watch Online @ Movie4u

Last Updated: 2011-10-13 13:25:01 (Update Now)

Torrent added: 2008-07-15 12:42:08



VPN For Torrents

Torrent Files List


Compilation Greatest Hits 70-80 Vol.2 (Size: 406.27 MB) (Files: 4)

 Compilation Greatest Hits 70-80 Vol.2

3.02 KB

 Image0001.JPG

680.63 KB

 Various - Compilation Greatest Hits 70-80 Vol.2.cue

1.53 KB

 Various - Compilation Greatest Hits 70-80 Vol.2.flac

405.60 MB
 

Announce URL:

Torrent description

[align=center]Compilation Greatest Hits 70 80 vol 2 flac+cuetnt village scambioetico org by Ramasutra preview 1
[SIZE=16][color=#e1771e] Compilation Greatest Hits 70-80 vol.2[/SIZE][/color]

[color=purple] by Ramasutra [/color]

[color=green]:::->Cover<-:::[/color]

Compilation Greatest Hits 70 80 vol 2 flac+cuetnt village scambioetico org by Ramasutra preview 0

[color=green]:::->Dati Album<-:::[/color]


Autore:Artisti Vari
Titolo:Compilation Greatest Hits 70-80 vol.2
Anno: 2002
Genere: Dance
Etichetta:sconosciuta
fonte cd /originale /cdda
Cover : Incluse
------------------------------------------------------------------------------------------------------------------------

[CODE]Exact Audio Copy V0.99 prebeta 3 from 28. July 2007

EAC extraction logfile from 15. July 2008, 12:27

Various / Compilation Greatest Hits 70-80 Vol.2

Used drive : _NEC DVD_RW ND-3550A Adapter: 5 ID: 0

Read mode : Secure
Utilize accurate stream : Yes
Defeat audio cache : Yes
Make use of C2 pointers : No

Read offset correction : 48
Overread into Lead-In and Lead-Out : No
Fill up missing offset samples with silence : Yes
Delete leading and trailing silent blocks : No
Null samples used in CRC calculations : No
Used interface : Installed external ASPI interface

Used output format : User Defined Encoder
Selected bitrate : 768 kBit/s
Quality : High
Add ID3 tag : No
Command line compressor : C:\Programmi\Exact Audio Copy\FLAC\FLAC.EXE
Additional command line options : -6 -V -T "ARTIST=%a" -T "TITLE=%t" -T "ALBUM=%g" -T "DATE=%y" -T "TRACKNUMBER=%n" -T "GENRE=%m" -T "COMMENT=%e" %s -o %d


TOC of the extracted CD

Track | Start | Length | Start sector | End sector
---------------------------------------------------------
1 | 0:00.00 | 5:30.29 | 0 | 24778
2 | 5:30.29 | 3:54.33 | 24779 | 42361
3 | 9:24.62 | 3:40.13 | 42362 | 58874
4 | 13:05.00 | 3:59.67 | 58875 | 76866
5 | 17:04.67 | 4:56.41 | 76867 | 99107
6 | 22:01.33 | 4:26.45 | 99108 | 119102
7 | 26:28.03 | 3:30.17 | 119103 | 134869
8 | 29:58.20 | 4:40.16 | 134870 | 155885
9 | 34:38.36 | 4:30.59 | 155886 | 176194
10 | 39:09.20 | 4:23.05 | 176195 | 195924
11 | 43:32.25 | 4:06.03 | 195925 | 214377
12 | 47:38.28 | 3:58.48 | 214378 | 232275
13 | 51:37.01 | 4:00.36 | 232276 | 250311
14 | 55:37.37 | 4:21.24 | 250312 | 269910


Range status and errors

Selected range

Filename D:\Documents and Settings\salvo.SN116508160310\Documenti\Various - Compilation Greatest Hits 70-80 Vol.2.wav

Suspicious position 0:57:23

Peak level 100.0 %
Range quality 99.9 %
Test CRC 798FB4FC
Copy CRC 798FB4FC
Copy finished

No errors occurred


AccurateRip summary

Track 1 not present in database
Track 2 not present in database
Track 3 not present in database
Track 4 not present in database
Track 5 not present in database
Track 6 not present in database
Track 7 not present in database
Track 8 not present in database
Track 9 not present in database
Track 10 not present in database
Track 11 not present in database
Track 12 not present in database
Track 13 not present in database
Track 14 not present in database

None of the tracks are present in the AccurateRip database

End of status report
[/CODE]

related torrents

Torrent name

health leech seeds Size
 


comments (0)

Main Menu