Other

GreenDay DookieDvDRipXvidHectorbusinspector1337x org

  • Download 5x Faster
  • Download torrent
  • Direct Download
  • Rate this torrent +  |  -
GreenDay DookieDvDRipXvidHectorbusinspector1337x org

Free and Direct Download with Usenet.nl 300GB+ free


Torrent info

Name:GreenDay DookieDvDRipXvidHectorbusinspector1337x org

Total Size: 700.15 MB

Magnet: Magnet Link

Seeds: 2

Leechers: 4

Stream: Watch Online @ Movie4u

Last Updated: 2010-12-23 21:43:09 (Update Now)

Torrent added: 2009-08-20 12:36:46





Torrent Files List


Dookie.txt (Size: 700.15 MB) (Files: 4)

 Dookie.txt

4.05 KB

 1337x.org.txt

0.68 KB

 superd_7034727[1].jpg

84.03 KB

 GreenDay Dookie][DvDRip][Xvid][Hectorbusinspector][1337x.avi

700.06 MB
 

Announce URL: http://genesis.1337x.org:1337/announce

Torrent description

_________________________________________________________________________________________________________________________________________________________________
Featuring rare previously unreleased footage of Green Day live in concert, this is the ultimate critical review of the album which launched the band on the road
to superstardom. For the first time Larry Livermore, the man who discovered Green ... Full DescriptionDay and nurtured the band to the verge of its commercial
breakthrough, speaks about life inside the world of Green Day, and his early experiences with the band he first met as sixteen year olds when they were known as
_________________________________________________________________________________________________________________________________________________________________
Sweet Children. Essential viewing for every Green Day fan.
DOOKIE, Green Day's first major label album, launched the post-punk band to mainstream commercial success. This film goes inside the history of the pivotal album,
and includes live concert footage plus an interview with Larry Livermore, the man who discovered the teenage punks in their band Sweet Children, and helped push
them in the direction of international superstardom.
__________________________________________________________________________________________________________________________________________________________________

General
Complete name : GreenDay Dookie][DvDRip][Xvid][Hectorbusinspector][1337x.avi
Format : AVI
Format/Info : Audio Video Interleave
File size : 700 MiB
Duration : 1h 3mn
Overall bit rate : 1 540 Kbps
Writing application : VirtualDubMod 1.5.4.1 (build 2178/release)
Writing library : VirtualDubMod build 2178/release

Video
ID : 0
Format : MPEG-4 Visual
Format profile : [email protected]
Format settings, BVOP : Yes
Format settings, QPel : No
Format settings, GMC : No warppoints
Format settings, Matrix : Custom
Codec ID : XVID
Codec ID/Hint : XviD
Duration : 1h 3mn
Bit rate : 1 403 Kbps
Width : 672 pixels
Height : 400 pixels
Display aspect ratio : 1.680
Frame rate : 29.970 fps
Resolution : 24 bits
Colorimetry : 4:2:0
Scan type : Progressive
Bits/(Pixel*Frame) : 0.174
Stream size : 638 MiB (91%)
Writing library : XviD 1.2.1 (UTC 2008-12-04)

Audio
ID : 1
Format : MPEG Audio
Format version : Version 1
Format profile : Layer 3
Codec ID : 55
Codec ID/Hint : MP3
Duration : 1h 3mn
Bit rate mode : Constant
Bit rate : 128 Kbps
Channel(s) : 2 channels
Sampling rate : 48.0 KHz
Resolution : 16 bits
Stream size : 58.1 MiB (8%)
Alignment : Aligned on interleaves
Interleave, duration : 67 ms (2.00 video frames)
Interleave, preload duration : 504 ms
Writing library : LAME3.98r
Encoding settings : -m j -V 4 -q 2 -lowpass 17 -b 128
Language : English
___________________________________________________________________________________________________________________________________________________________________________

Xvid
___________________________________________________________________________________________________________________________________________________________________________


related torrents

Torrent name

health leech seeds Size

GreenDay Discography

1 0 801.73 MB 0
 

comments (0)

Main Menu