Action

Wanted 2008 DVDRip N!CK

  • Download 5x Faster
  • Download torrent
  • Direct Download
  • Rate this torrent +  |  -
Wanted 2008 DVDRip N!CK

Anonymous and Direct Download 300GB+ free


Torrent info

Name:Wanted 2008 DVDRip N!CK

Total Size: 708.55 MB

Magnet: Magnet Link

Seeds: 0

Leechers: 11

Stream: Watch Online @ Movie4u

Last Updated: 2010-11-26 02:37:21 (Update Now)

Torrent added: 2009-08-20 12:34:36




Torrent Files List


Release Info.txt (Size: 708.55 MB) (Files: 4)

 Release Info.txt

0.97 KB

 Wanted [2008] DVDRip - N!CK.srt

53.82 KB

 Sample.avi

9.64 MB

 Wanted [2008] DVDRip - N!CK.avi

698.85 MB
 

Announce URL: http://tracker.openbittorrent.com:80/announce

Torrent description

General
Complete name : C:\Wanted [2008] DVDRip - N!CK\Wanted [2008] DVDRip - N!CK.avi
Format : AVI
Format/Info : Audio Video Interleave
File size : 699 MiB
Duration : 1h 45mn
Overal bit rate : 927 Kbps

Video
Format : MPEG-4 Visual
Format profile : Streaming [email protected]
Format settings, BVOP : Yes
Format settings, QPel : No
Format settings, GMC : No warppoints
Format settings, Matrix : Default
Codec ID : XVID
Codec ID/Hint : XviD
Duration : 1h 45mn
Bit rate : 818 Kbps
Width : 640 pixels
Height : 288 pixels
Display aspect ratio : 2.222
Frame rate : 25.000 fps
Resolution : 8 bits
Colorimetry : 4:2:0
Scan type : Progressive
Bits/(Pixel*Frame) : 0.177
Stream size : 617 MiB
Writing library : XviD 50

Audio
Format : MPEG Audio
Format version : Version 1
Format profile : Layer 3
Codec ID : 55
Codec ID/Hint : MP3
Bit rate mode : Constant
Bit rate : 96.0 Kbps
Channel(s) : 2 channels
Sampling rate : 48.0 KHz
Resolution : 16 bits
Stream size : 72.4 MiB

related torrents

Torrent name

health leech seeds Size
 


comments (0)

Main Menu